Donald Wrye | Game of Thrones Season 6 Complete HDTV 720p x265 AAC E-Subs [GWC] | Overboard (2018) BluRay 720p 850MB 2018 4,084

Скачать через торрент Охотники на троллей Trollhunters Фильм бесплатно в хорошем качестве torrent

Скачивайте на UnionPeer.org фильмы через торрент без регистрации. Новинки кино в хорошем качестве через торрент. На UnionPeer.org можно скачать через торрент фильмы 2014 и 2015 годов. Самые новые фильмы.

Скачать торрент Охотники на троллей Trollhunters бесплатно через .torrent фильм мультфильм сериал

Статистика раздачи
Размер:  7.29 GB   |    Зарегистрирован:  4 месяца 19 дней   |    .torrent скачан:  33 раза   |   
Раздают:  1  
   
загрузка...
 
Автор Сообщение

Galfimbul

avatar Galfimbul


Охотники на троллей / Trollhunters

Год выпуска: 2018
Страна: США
Жанр: мультфильм, фэнтези, комедия, приключения
Продолжительность: ~00:22:00

Перевод: Профессиональный (двухголосый закадровый) Gears Media

Режиссёр: Родриго Блаас, Грег Тирнан
В ролях: Уилл Фридел, Тревор Дивэлл, Кевин Майкл Ричардсон, Ванесса Маршалл, Дэвид Соболев, Джеймс Арнольд Тейлор, Айзек С. Синглтон мл., Кри Саммер, Джонатан Адамс, Джонатан Фрейкс

Описание: В руки пятнадцатилетнему юноше попадает Магический Амулет, который даёт ему звание охотника на троллей, призванного защищать троллей, живущих под землёй — под человеческим городом Аркадия. «Охотники на троллей» - мультсериал в жанре комедии и фэнтези, вышедший в 2016 году. Он расскажет о легендарной битве, участниками которой станут люди и тролли.

Ссылка на предыдущие и альтернативные раздачи: http://rutracker.org/forum/tracker.php?g=foreign_se...;nm=Trollhunters

Сэмпл: http://multi-up.com/1199950

Качество: WEBRip 720p
Формат: MKV
Видео: X264, 1280x720 at 23.976 fps, ~3000 kbps avg
Аудио1: Russian, AC3, 48 kHz, 2 ch, 384 kbps
Аудио2: English, AC3, 48 kHz, 6 ch, 384 kbps
Субтитры: нет
Реклама: аудио (два раза, в начале и конце, по 12 сек.)
Format : Matroska
Format version : Version 4 / Version 2
File size : 557 MiB
Duration : 23 min 36 s
Overall bit rate mode : Variable
Overall bit rate : 3 297 kb/s
Encoded date : UTC 2018-05-30 04:08:36
Writing application : mkvmerge v22.0.0 ('At The End Of The World') 64-bit
Writing library : libebml v1.3.5 + libmatroska v1.4.8

Video
ID : 1
Format : AVC
Format/Info : Advanced Video Codec
Format profile : [email protected]
Format settings : CABAC / 3 Ref Frames
Format settings, CABAC : Yes
Format settings, ReFrames : 3 frames
Codec ID : V_MPEG4/ISO/AVC
Duration : 23 min 36 s
Bit rate mode : Variable
Bit rate : 2 610 kb/s
Maximum bit rate : 3 915 kb/s
Width : 1 280 pixels
Height : 720 pixels
Display aspect ratio : 16:9
Frame rate mode : Constant
Frame rate : 23.976 (24000/1001) FPS
Color space : YUV
Chroma subsampling : 4:2:0
Bit depth : 8 bits
Scan type : Progressive
Bits/(Pixel*Frame) : 0.118
Stream size : 427 MiB (77%)
Writing library : x264 core 148 r2714 2daf636
Encoding settings : cabac=1 / ref=3 / deblock=1:0:0 / analyse=0x1:0x111 / me=umh / subme=10 / psy=1 / psy_rd=1.00:0.00 / mixed_ref=1 / me_range=24 / chroma_me=1 / trellis=2 / 8x8dct=0 / cqm=0 / deadzone=21,11 / fast_pskip=1 / chroma_qp_offset=-2 / threads=8 / lookahead_threads=1 / sliced_threads=0 / nr=0 / decimate=1 / interlaced=0 / bluray_compat=0 / stitchable=1 / constrained_intra=0 / bframes=2 / b_pyramid=0 / b_adapt=2 / b_bias=0 / direct=3 / weightb=1 / open_gop=0 / weightp=2 / keyint=48 / keyint_min=25 / scenecut=0 / intra_refresh=0 / rc_lookahead=48 / rc=2pass / mbtree=1 / bitrate=2610 / ratetol=1.0 / qcomp=0.50 / qpmin=6 / qpmax=51 / qpstep=4 / cplxblur=20.0 / qblur=0.5 / vbv_maxrate=3915 / vbv_bufsize=5220 / nal_hrd=vbr / filler=0 / ip_ratio=1.40 / aq=1:1.00
Default : Yes
Forced : No

Audio #1
ID : 2
Format : AC-3
Format/Info : Audio Coding 3
Codec ID : A_AC3
Duration : 23 min 36 s
Bit rate mode : Constant
Bit rate : 384 kb/s
Channel(s) : 2 channels
Channel positions : Front: L R
Sampling rate : 48.0 kHz
Frame rate : 31.250 FPS (1536 SPF)
Bit depth : 16 bits
Compression mode : Lossy
Stream size : 64.9 MiB (12%)
Title : Gears Media
Language : Russian
Service kind : Complete Main
Default : Yes
Forced : Yes

Audio #2
ID : 3
Format : AC-3
Format/Info : Audio Coding 3
Codec ID : A_AC3
Duration : 23 min 36 s
Bit rate mode : Constant
Bit rate : 384 kb/s
Channel(s) : 6 channels
Channel positions : Front: L C R, Side: L R, LFE
Sampling rate : 48.0 kHz
Frame rate : 31.250 FPS (1536 SPF)
Bit depth : 16 bits
Compression mode : Lossy
Stream size : 64.8 MiB (12%)
Language : English
Service kind : Complete Main
Default : No
Forced : No
<div class="sp-wrap">
<div class="sp-head folded">Внимание! Раздача ведётся путём добавления новых серий</div>
<div class="sp-body">[b]Внимание! Раздача ведётся путём добавления новых серий; при каждом добавлении создаётся новый торрент. Чтобы начать докачку новой серии, пользователям необходимо сделать следующее:
(1) остановить скачивание,
(2) удалить старый торрент у себя из клиента (старые серии удалять не надо),
(3) скачать новый торрент и запустить его у себя в клиенте вместо старого, при этом указать клиенту путь в старую папку куда и должно происходить скачивание новых серий.

Eсли вы уже удалили старые серии, то предотвратить повторную закачку старых серий можно, отжав галочку в соответствующих местах при запуске нового торрента. По возможности, желательно не удалять старые серии как можно дольше чтобы релизёр не столько продолжал раздавать старые серии, а смог сконцентрироваться на новых.</div>
</div>

Трекер:  [ 30-Май-2018 07:54 ]

  

Скачать .torrent

Размер .torrent файла 74 KB


Размер: 7.29 GB
Хэш (hash) релиза: f883e4aa69d8b74daede7d69f4b17dff4d9f34b4
Подписка на обновления:

Торренты, похожие на Охотники на троллей Trollhunters скачать торрент

Форум Название Автор Размер S L Добавлен
Мультсериалы ·· Охотники на троллей / Trollhunters / Сезон: 3 / Серии: 1-13 из 13 (Родриго Блаас, Грег Тирнан) [2018, США, мультфильм, фэнтези, комедия, приключения, WEBRip] DVO (Gears Media) + Original Galfimbul 39294017083.66 GB 0 0 1527659648

08:54

30-Май-18

Еще никто не оставлял запись к записи скачать торрент Охотники на троллей Trollhunters . Будь первым!

!Обратная связь