Watch movie | Myth Legend Told As Fiction (9) | No comment

Скачать через торрент Девушки и танки: Финал Girls und Panzer: Saishuushou бесплатно Аниме Все серии на русском torrent

Статистика раздачи
Размер:  2.8 GB   |    Зарегистрирован:  19 дней   |    .torrent скачан:  50 раз   |   
Раздают:  1  
   
загрузка...
 
Автор Сообщение

Galfimbul

avatar Galfimbul



Страна: Япония
Год выпуска: 2017
Жанр: приключения
Тип: Movie
Продолжительность: 6 эп, ~48 мин. серия
Режиссер: Мидзусима Цутому
Студия: Actas
Перевод:

русские субтитры от Uncle_Ho

Озвучка:

дубляж от Capella Film
Описание: В скором будущем в мире станут очень популярными бои на танках. Причём не на поднадоевших компьютерах, а на реальных боевых машинах. Дело доходит до того, что в школах и университетах даже вводят новый предмет — танководство, и наибольшую популярность оно получает среди девушек. Именно они участвуют в больших международных турнирах: русская команда «Правда» практически непобедима, немногим ей уступают напористые китаянки, чопорные англичанки и дотошные немки. А вот у японской команды «Оарай» одни проблемы: и с танчиками не всё гладко, и академию хотят закрыть, и личная жизнь девчонок никак не складывается. Да тут ещё во время важнейшего чемпионата появляется новый конкурент — бригада психически неустойчивых француженок. Совсем некстати!
Доп. информация: World Art | MAL | AniDB
Качество: BDRip
Тип релиза: Без хардсаба
Формат видео: MKV
Наличие линковки: Нет
Релиз/Автор рипа: Ohys-Raws

Видео: x264, 1920x1080, ~6700 Kbps, 23.976 fps, 8bit
Аудио:
1. FLAC, 1505 kbps, 48.0 kHz, 2ch (в составе контейнера) Язык: Японский
2. AAC, 128 kbps, 48 kHz, 2ch (внешним файлом) Язык: Русский
Субтитры: ASS, внешние + надписи Язык субтитров: Русский
GeneralUnique ID : 24738192830209204892275755390137819637 (0x129C6713087B5E11598DA136430061F5)Complete name : I:\tmp\Girls und Panzer Saishuushou [BD] [1080]\[Ohys-Raws] Girls und Panzer Saishuushou - 01 (BD 1920x1080 x264).mkvFormat : MatroskaFormat version : Version 4 / Version 2File size : 2.76 GiBDuration : 47 min 57 sOverall bit rate mode : VariableOverall bit rate : 8 242 kb/sEncoded date : UTC 2018-05-28 19:19:35Writing application : mkvmerge v23.0.0 ('The Bride Said No') 64-bitWriting library : libebml v1.3.6 + libmatroska v1.4.9

VideoID : 1Format : AVCFormat/Info : Advanced Video CodecFormat profile : [email protected] settings, CABAC : YesFormat settings, ReFrames : 4 framesCodec ID : V_MPEG4/ISO/AVCDuration : 47 min 57 sBit rate : 6 735 kb/sWidth : 1 920 pixelsHeight : 1 080 pixelsDisplay aspect ratio : 16:9Frame rate mode : ConstantFrame rate : 23.976 (24000/1001) FPSColor space : YUVChroma subsampling : 4:2:0Bit depth : 8 bitsScan type : ProgressiveBits/(Pixel*Frame) : 0.135Stream size : 2.26 GiB (82%)Writing library : x264 core 155 r2867+74 66b5600 t_mod_Custom_2 [[email protected] X86_64]Encoding settings : cabac=1 / ref=3 / deblock=1:0:0 / analyse=0x1:0x131 / me=umh / subme=9 / psy=1 / fade_compensate=0.00 / psy_rd=1.00:0.00 / mixed_ref=1 / me_range=32 / chroma_me=1 / trellis=1 / 8x8dct=0 / cqm=0 / deadzone=21,11 / fast_pskip=1 / chroma_qp_offset=-2 / threads=18 / lookahead_threads=1 / sliced_threads=0 / nr=0 / decimate=1 / interlaced=0 / bluray_compat=0 / constrained_intra=0 / fgo=0 / bframes=3 / b_pyramid=2 / b_adapt=1 / b_bias=0 / direct=1 / weightb=1 / open_gop=0 / weightp=2 / keyint=240 / keyint_min=1 / scenecut=40 / intra_refresh=0 / rc_lookahead=40 / rc=crf / mbtree=1 / crf=17.0000 / qcomp=0.60 / qpmin=0:0:0 / qpmax=69:69:69 / qpstep=4 / ip_ratio=1.40 / aq=1:1.00 / aq-sensitivity=10.00 / aq-factor=1.00:1.00:1.00 / aq2=0 / aq3=0Default : YesForced : No

AudioID : 2Format : FLACFormat/Info : Free Lossless Audio CodecCodec ID : A_FLACDuration : 47 min 57 sBit rate mode : VariableBit rate : 1 505 kb/sChannel(s) : 2 channelsChannel positions : Front: L RSampling rate : 48.0 kHzFrame rate : 11.719 FPS (4096 spf)Bit depth : 24 bitsStream size : 516 MiB (18%)Writing library : libFLAC 1.3.0 (UTC 2013-05-26)Language : JapaneseDefault : YesForced : No
01 - Movie 1
...5567775 - BDRip


Трекер:  [ 30-Май-2018 03:30 ]

  

Скачать .torrent

Размер .torrent файла 29 KB


Размер: 2.8 GB
Хэш (hash) релиза: 2f2ffdd77a25255e8460bc66cf0956c325cf74fe
Подписка на обновления:

Торренты, похожие на Девушки и танки: Финал Girls und Panzer: Saishuushou скачать торрент

Форум Название Автор Размер S L Добавлен
Аниме | HD Rips ·· Девушки и танки: Финал / Girls und Panzer: Saishuushou / Girls und Panzer das Final [Movie] [1 из 6] [Без хардсаба] [JAP+SUB] [2017, приключения, BDRemux] [1080p] Galfimbul 1392789090412.97 GB 0 0 1527528607

20:30

28-Май-18

Еще никто не оставлял запись к записи скачать торрент Девушки и танки: Финал Girls und Panzer: Saishuushou . Будь первым!

!Обратная связь