Baby Looney Tunes | Robby Rasmussen | Pier Francesco Aiello per PFA Films e Feltrinelli1

Скачать через торрент Миг за мигом Kokkoku бесплатно Аниме Все серии на русском torrent

Статистика раздачи
Размер:  2.15 GB   |    Зарегистрирован:  4 месяца 17 дней   |    .torrent скачан:  24 раза   |   
Раздают:  1  
   
загрузка...
 
Автор Сообщение

Galfimbul

avatar Galfimbul



Год выпуска: 2018
Страна: Япония
Жанр: триллер, фантастика, драма
Продолжительность: TV, 12 эп. по 25 мин.
Режиссер: Охаси Ёсимицу
Студия: Geno Studio
Выпуск: с 08.01.2018 по 26.03.2018
Описание:
Семью Джури Юкавы нельзя назвать счастливой, ведь под одной крышей собрались пьющий по вечерам отец, вышедший на пенсию дед, брат, ведущий затворнический образ жизни, и сестра — мать-одиночка, подарившая ей племянника неизвестно от кого. А сама Джури — несостоявшийся офисный работник, заваливший два десятка собеседований.
По странному стечению обстоятельств, в один погожий день, её племянник и брат, отправившийся забирать его из садика, оказываются похищены какой-то шпаной. При этом их похитители требуют незамедлительно достать крупную сумму денег наличными в срок не позднее, чем через 30 минут, что едва ли возможно в сложившихся обстоятельствах.
В тот момент, когда Джури, осознав безвыходность, решает отправиться на спасение своих родных с ножом в руке, её дед вынуждено раскрывает семейный секрет, передающийся из поколения в поколение, о том, что их род владеет артефактом, способным останавливать время.
Тайна оказывается ошеломляющей, так как никто из нынешних членов семьи, кроме него самого, не были в неё посвящены. Однако, всё не настолько просто, как дедушка мог бы себе представить, ведь на самом деле семья Юкава вовсе не единственные, кто может манипулировать временем.© холодный.raw, man from Chiba.
Информационные ссылки: AniDB || World Art || MAL
Качество: BDRip
Автор рипа: NoFilterRaws
Тип релиза: Без хардсаба; без линковки; с главами
Формат видео: MKV
Видео: MPEG4(х264); 8 bit; 1920x1080; ~12300 Кбит/сек; 23.976 кадра/сек
Аудио JAP: FLAC; 48kHz; 2 канала; ~530 Кбит/сек
Субтитры RUS: ASS; внешние; перевод: YakuSub Studio
Субтитры RUS: переводчик/перевод песен/оформление: Nika_Elrik, редактор: Arashi-sama
01. Миг первый

02. Миг второй
03. Миг третий
04. Миг четвертый
05. Миг пятый
06. Миг шестой
07. Миг седьмой
08. Миг восьмой
09. Миг девятый
10. Миг десятый
11. Миг одиннадцатый
12. Миг двенадцатый
IamNotOk - BDRipMERDOK - BDRip

GeneralUnique ID : 170762589278364718306752442271421561930 (0x8077ADAC18A2CDC2ADEF9E54F459FC4A)Complete name : \Kokkoku [BDRip 1080p x264 FLAC]\[NoFilterRaws] Kokkoku 01 [BDRip 1920x1080 x264 FLAC].mkvFormat : MatroskaFormat version : Version 4 / Version 2File size : 2.15 GiBDuration : 23 min 59 sOverall bit rate mode : VariableOverall bit rate : 12.8 Mb/sEncoded date : UTC 2018-05-29 08:36:58Writing application : mkvmerge v13.0.0 ('The Juggler') 64bitWriting library : libebml v1.3.4 + libmatroska v1.4.5

VideoID : 1Format : AVCFormat/Info : Advanced Video CodecFormat profile : [email protected] settings, CABAC : YesFormat settings, RefFrames : 4 framesCodec ID : V_MPEG4/ISO/AVCDuration : 23 min 59 sBit rate : 12.3 Mb/sWidth : 1 920 pixelsHeight : 1 080 pixelsDisplay aspect ratio : 16:9Frame rate mode : ConstantFrame rate : 23.976 (24000/1001) FPSColor space : YUVChroma subsampling : 4:2:0Bit depth : 8 bitsScan type : ProgressiveBits/(Pixel*Frame) : 0.247Stream size : 2.06 GiB (96%)Writing library : x264 core 155 r2901M 7d0ff22 (DJATOM's mod)Encoding settings : cabac=1 / ref=4 / deblock=1:1:-1 / analyse=0x3:0x113 / me=umh / subme=9 / psy=1 / fade_compensate=0.00 / psy_rd=1.00:0.00 / mixed_ref=1 / me_range=32 / chroma_me=1 / trellis=2 / 8x8dct=1 / cqm=0 / deadzone=21,11 / fast_pskip=1 / chroma_qp_offset=-2 / threads=12 / lookahead_threads=2 / sliced_threads=0 / nr=0 / decimate=1 / interlaced=0 / bluray_compat=0 / constrained_intra=0 / bframes=9 / b_pyramid=2 / b_adapt=2 / b_bias=0 / direct=1 / weightb=1 / open_gop=0 / weightp=2 / keyint=240 / keyint_min=23 / scenecut=40 / intra_refresh=0 / rc=crf / mbtree=0 / crf=16.0000 / qcomp=0.72 / qpmin=0 / qpmax=69 / qpstep=4 / ip_ratio=1.40 / pb_ratio=1.30 / aq=1:0.85Default : YesForced : NoColor range : LimitedColor primaries : BT.709Transfer characteristics : BT.709Matrix coefficients : BT.709

AudioID : 2Format : FLACFormat/Info : Free Lossless Audio CodecCodec ID : A_FLACDuration : 23 min 59 sBit rate mode : VariableBit rate : 528 kb/sChannel(s) : 2 channelsChannel positions : Front: L RSampling rate : 48.0 kHzFrame rate : 11.719 FPS (4096 SPF)Bit depth : 16 bitsStream size : 90.7 MiB (4%)Writing library : libFLAC 1.3.2 (UTC 2017-01-01)Default : YesForced : No

Menu00:00:00.000 : en:Avant00:01:36.012 : en:OP00:03:05.977 : en:Part A00:13:40.986 : en:Part B00:22:09.953 : en:ED00:23:39.960 : en:Preview

Выбор видео, перевода, осуществляется релизером и не подлежит обсуждению. Если вы считаете, что раздаваемый материал противоречит правилам раздела "Аниме" rutracker.org, сообщите об этом одному из модераторов раздела.
Данный релиз предназначен для просмотра на ПК. Воспроизведение на иных проигрывателях не гарантируется.
Данный релиз предназначен для просмотра с внешними субтитрами:

установить шрифты из папки "RUS Subs » [<авторы перевода>] » Fonts";
скопировать файлы .ass из папки "RUS Subs » [<авторы перевода>]" в одну папку с видео - плеер подгрузит их автоматически при открытии видео.

Если у вас возникли проблемы с просмотром, не связанные с описанным выше, сообщите о них автору раздачи посредством сообщения в теме или ЛС Horodep.


Трекер:  [ 29-Май-2018 12:30 ]

  

Скачать .torrent

Размер .torrent файла 11 KB


Размер: 2.15 GB
Хэш (hash) релиза: 31da8149f34ee3e1da1cfe25e6d249b4789e7234
Подписка на обновления:

Еще никто не оставлял запись к записи скачать торрент Миг за мигом Kokkoku . Будь первым!

!Обратная связь