Stronger 2017 | Hawaii Five-0 | Szene-News

Скачать через торрент Махораба Mahoraba ~Heartful days~ бесплатно Аниме Все серии на русском torrent

Статистика раздачи
Размер:  166.75 GB   |    Зарегистрирован:  2 месяца 21 день   |    .torrent скачан:  36 раз   |   
Раздают:  1  
   
загрузка...
 
Автор Сообщение

Galfimbul

avatar Galfimbul


Махораба / Mahoraba ~Heartful days~

Год выпуска: 2005
Страна: Япония
Жанр: комедия, романтика, школа
Тип: TV
Продолжительность: 26 эп. по 24 мин.
Озвучка:

Одноголосая (муж) от Лист (LC Group)

Русские субтитры: есть (отдельным файлом, формат .ass)
Перевод:

RolePlayer, yHuKyM

Хардсаб: Нет
Режиссер: Кимура Синъитиро
Студия: J.C.Staff

Описание: Сиратори Рюджи хочет научиться рисовать детские книжки с картинками, для чего и поступает в художественную школу Токио. Но ездить из пригорода в город каждый день накладно и поэтому он снимает через знакомых комнату в общаге. Ну а что такое общага, знает каждый студент. И кто в ней не жил многое потерял. В Японии точно такие же общяги как и у нас, и жильцы в них такие же как у нас, и шутки такие же как...(Так! Помоему это я где-то уже видел?) Так что о бесбашенных соседях-алкаголиках, громкой музыки до утра, пьянках-гулянках каждый вечер, девченках и еще многом другом не мне вам рассказывать. О какой учебе идет речь вообще!? Да и к томуже управляющая (Оя-сан - Управляющий пер. с яп.) оказывается страдает шизафренией с диагнозом раздвоение, растроения и даже... ой. Ну да ладно, так можно и весь сериал рассказать и смотреть будет не интересно. Так что оставим скелеты в шкафу и не будем их трогать до поры до времени... ПРИЯТНОГО ВАМ ПРОСМОТРА!

© Лист

Качество: Blu-Ray Remux
Формат: MKV
Видео кодек: AVC
Аудио кодек: FLAC
Видео: 1920x1080 (16:9) 23,976 fps ~37 Mbps 8bit
Аудио:
Jap FLAC, 48000Hz, ~648 Kbps, 2ch
RUS (ext) MP3, 44100Hz, ~192 Kbps, 2ch

Чаптеры присутствуют.
01. Добро пожаловать в Нарутакису
02. Секрет Оя-тян
03. Любимое Место
04. Тёплый и пушистый
05. Негатив и Позитив
06. Проверка боем
07. Прятки
08. За покупками
09. Правильно
10. Портрет
11. Чувства . . .
12. Лето! Бикини! Пляж!
13. Сокровище Нарутакису
14. Конец лета
15. ...наверное
16. Гости после гостей
17. Цвет небес
18. Мяу Мяу Мяу
19. Каждый день
20. На школьном фестивале
21. Мать и дочь
22. Бесценная...
23. Среди красных листьев
24. Колокольчики
25. Ночь откровений
26. Сердечные Дни
Общее
Уникальный идентификатор : 263688908052674796337113295514355825425 (0xC660A2EB403287ACD35DDC971DF6FB11)
Полное имя : Z:\Anime Release - working\Mahoraba\[anti-raws]Mahoraba ep.01[BDRemux].mkv
Формат : Matroska
Версия формата : Version 4 / Version 2
Размер файла : 6,36 Гбайт
Продолжительность : 23 м. 39 с.
Режим общего битрейта : Переменный
Общий поток : 38,5 Мбит/сек
Дата кодирования : UTC 2018-05-08 00:53:07
Программа кодирования : mkvmerge v23.0.0 ('The Bride Said No') 64-bit
Библиотека кодирования : libebml v1.3.6 + libmatroska v1.4.9

Видео
Идентификатор : 2
Формат : AVC
Формат/Информация : Advanced Video Codec
Профиль формата : [email protected]
Настройки формата : CABAC / 2 Ref Frames
Параметр CABAC формата : Да
Параметр RefFrames формата : 2 кадра
Идентификатор кодека : V_MPEG4/ISO/AVC
Продолжительность : 23 м. 39 с.
Вид битрейта : Переменный
Битрейт : 37,9 Мбит/сек
Ширина : 1920 пикселей
Высота : 1080 пикселей
Соотношение сторон : 16:9
Режим частоты кадров : Постоянный
Частота кадров : 23,976 (24000/1001) кадра/сек
Цветовое пространство : YUV
Субдискретизация насыщенности : 4:2:0
Битовая глубина : 8 бит
Тип развёртки : Прогрессивная
Бит/(Пиксели*Кадры) : 0.762
Размер потока : 6,26 Гбайт (98%)
Default : Нет
Forced : Нет

Аудио
Идентификатор : 1
Формат : FLAC
Формат/Информация : Free Lossless Audio Codec
Идентификатор кодека : A_FLAC
Продолжительность : 23 м. 39 с.
Вид битрейта : Переменный
Битрейт : 648 Кбит/сек
Каналы : 2 канала
Расположение каналов : Front: L R
Частота : 48,0 КГц
Частота кадров : 11,719 кадров/сек (4096 SPF)
Битовая глубина : 16 бит
Размер потока : 110 Мбайт (2%)
Библиотека кодирования : libFLAC 1.2.1 (UTC 2007-09-17)
Язык : Japanese
Default : Да
Forced : Нет

Меню
00:00:00.000 : en:00:00:00.000
00:02:47.042 : en:00:02:47.042
00:12:22.992 : en:00:12:22.992
00:12:28.081 : en:00:12:28.081
00:12:33.086 : en:00:12:33.086
00:21:53.103 : en:00:21:53.103
00:23:23.068 : en:00:23:23.068


Трекер:  [ 29-Май-2018 00:01 ]

  

Скачать .torrent

Размер .torrent файла 215 KB


Размер: 166.75 GB
Хэш (hash) релиза: 42786df7a0c56cf5b4c6e5ce05b9aefab4e962f3
Подписка на обновления:

Еще никто не оставлял запись к записи скачать торрент Махораба Mahoraba ~Heartful days~ . Будь первым!

!Обратная связь