Christopher Robin | Teoria wielkiego podrywu / ... | Witchblade

Скачать через торрент Второй Мэйджор Major 2nd бесплатно Аниме Все серии на русском torrent

Статистика раздачи
Размер:  2.61 GB   |    Зарегистрирован:  2 месяца 22 дня   |    .torrent скачан:  23 раза   |   
Раздают:  1  
   
загрузка...
 
Автор Сообщение

Galfimbul

avatar Galfimbul



Второй Мэйджор / Major 2nd
Страна: Япония
Год выпуска: 2018
Жанр: спорт, комедия, драма, сёнэн
Тип: TV
Продолжительность: >13 эп., ~ 25 мин. серия
Режиссер: Ватанабэ Аюму
Студия: Oriental Light and Magic
Описание:Шигенго Дайго – ученик начальной школы, чей отец, Горо, является профессиональным бейсболистом. Вдохновленный своим отцом, который когда-то был игроком Высшей лиги, Дайго начал играть в бейсбол с молодежной командой Mifune Dolphins. Тем не менее, он не справился с давлением будучи сыном профессионала и ушел из бейсбола менее чем через год. Затем, весной в шестом классе, в школу Дайго перевелся Сато Хикару, чей отец – Сато Тошия, бывший игрок Высшей лиги и близкий друг Горо. Судьба этих двух молодых парней начинает двигаться нога в ногу!
World-Art | AniDB
Качество: WEBRip
Тип релиза: Без хардсаба
Формат видео: MKV
Наличие линковки: Нет
Релиз: [HorribleSubs]
Видео: 1280x720, x264, 1 776 kb/s, 23.976 fps, 8 бит
Аудио: AAC, 128 kb/s, 2 ch, 44.1 kHz; яык Японский
Субтитры: внешние, язык субтитров русский; Перевод: [Crunchyroll]
Format : MatroskaFormat version : Version 4 / Version 2File size : 334 MiBDuration : 24 min 30 sOverall bit rate : 1 906 kb/sEncoded date : UTC 2018-05-27 19:33:19Writing application : mkvmerge v23.0.0 ('The Bride Said No') 64-bitWriting library : libebml v1.3.6 + libmatroska v1.4.9Attachments : MagistralC-Bold.otf

VideoID : 1Format : AVCFormat/Info : Advanced Video CodecFormat profile : [email protected] settings : CABAC / 6 Ref FramesFormat settings, CABAC : YesFormat settings, ReFrames : 6 framesCodec ID : V_MPEG4/ISO/AVCDuration : 24 min 29 sBit rate : 1 776 kb/sWidth : 1 280 pixelsHeight : 720 pixelsDisplay aspect ratio : 16:9Frame rate mode : VariableFrame rate : 23.976 (23976/1000) FPSColor space : YUVChroma subsampling : 4:2:0Bit depth : 8 bitsScan type : ProgressiveBits/(Pixel*Frame) : 0.080Stream size : 311 MiB (93%)Writing library : x264 core 120 r2120 0c7dab9Encoding settings : cabac=1 / ref=6 / deblock=1:1:1 / analyse=0x3:0x113 / me=umh / subme=8 / psy=1 / psy_rd=0.40:0.00 / mixed_ref=1 / me_range=16 / chroma_me=1 / trellis=1 / 8x8dct=1 / cqm=0 / deadzone=21,11 / fast_pskip=1 / chroma_qp_offset=-2 / threads=4 / sliced_threads=0 / nr=0 / decimate=1 / interlaced=0 / bluray_compat=0 / constrained_intra=0 / bframes=3 / b_pyramid=2 / b_adapt=2 / b_bias=0 / direct=3 / weightb=1 / open_gop=0 / weightp=2 / keyint=250 / keyint_min=23 / scenecut=40 / intra_refresh=0 / rc_lookahead=50 / rc=2pass / mbtree=1 / bitrate=1776 / ratetol=1.0 / qcomp=0.60 / qpmin=0 / qpmax=69 / qpstep=4 / cplxblur=20.0 / qblur=0.5 / vbv_maxrate=3552 / vbv_bufsize=8880 / nal_hrd=none / ip_ratio=1.40 / aq=1:0.60Default : YesForced : No

AudioID : 2Format : AACFormat/Info : Advanced Audio CodecFormat profile : LCCodec ID : A_AAC-2Duration : 24 min 30 sBit rate : 128 kb/sChannel(s) : 2 channelsChannel positions : Front: L RSampling rate : 44.1 kHzFrame rate : 43.066 FPS (1024 SPF)Compression mode : LossyStream size : 22.4 MiB (7%)Language : JapaneseDefault : YesForced : No
1. Мечта Дайго
2. Если бы только я не был младшим
3. Два юниора
4. Талант любить бейсбол
5. Специальная тренировка!
6. Игра в мяч
7. Не в последний раз
8. Тренировки Тошии
9. Мысли Хикару
Эфир 9-го эпизода намечен на 02.06.2018

Трекер:  [ 28-Май-2018 00:30 ]

  

Скачать .torrent

Размер .torrent файла 14 KB


Размер: 2.61 GB
Хэш (hash) релиза: 3c64850f7017e1262b9a8023252d0ff049eeda78
Подписка на обновления:

Еще никто не оставлял запись к записи скачать торрент Второй Мэйджор Major 2nd . Будь первым!

!Обратная связь