Sky Ferreira | Regarder un film | IMDb: 7.7 S3E24 Teen Wolf - Season 3

Скачать через торрент Марш смерти под рапсодию параллельного мира Death March kara Hajimaru Isekai Kyousoukyoku бесплатно Аниме Все серии на русском torrent

Статистика раздачи
Размер:  26.81 GB   |    Зарегистрирован:  2 месяца 22 дня   |    .torrent скачан:  29 раз   |   
Раздают:  1  
   
загрузка...
 
Автор Сообщение

Galfimbul

avatar Galfimbul


Марш смерти под рапсодию параллельного мира / Death March kara Hajimaru Isekai Kyousoukyoku

Год выпуска: 2018
Страна: Япония
Жанр: приключения, фэнтези
Тип: TV
Продолжительность: 12 эп. по 24 мин.
Озвучка:

Трёхголосая от Lupin & Cleo-chan & Hekomi (AniLibria)

Русские субтитры: есть (отдельным файлом, формат .ass)
Перевод:

LolWhat, DiaZone [AniLibria ]
Крысёнек, ayumuchan [AniPlay]
[Crunchyroll]
RoS, Звёзда33 [SovetRomantica]

Хардсаб: Нет
Режиссер: Онума Син
Студия: Silver Link

Описание: История рассказывает о 29-летнем программисте Ичиро Сузуки. Его жизнь меняется, когда он попадает в онлайн-игру, где становится 15-летним подростком по имени Сато. Поначалу молодой человек думает, что это сон, но на деле — нет. Кроме того, как выясняется, силой его персонаж не обделён. Во время нападения врагов Сато использует особую трёхразовую силу («метеоритный дождь»), которая стирает с лица земли армию ящеров, и при этом его уровень резко вырастает. Сила силой, но наш герой планирует спокойно жить, встречать новых друзей, скрывая свой уровень. Так или иначе, развитие игры, в частности возвращение Короля Демонов, встаёт у Сато на пути.

Качество: Blu-Ray Remux
Формат: MKV
Видео кодек: AVC
Аудио кодек: FLAC
Видео: 1920x1080 (16:9) 23,976 fps ~36,7 Mbps 8bit
Аудио:
Jap FLAC, 48000Hz, ~1445 Kbps, 2ch
RUS (ext) AC3, 48000Hz, ~192 Kbps, 2ch

Субтитры и озвучка взяты из этой раздачи.
Чаптеры присутствуют.
01. Бедствие, что началось с марша смерти
02. Прогулка по городу, что началась с марша смерти
03. Любовь, что началась с марша смерти
04. Обследование лабиринта, что началось с марша смерти
Общее
Уникальный идентификатор : 193267897534816787634084376939212928048 (0x91660B09977589A6F82CA95E648D7430)
Полное имя : Z:\Anime Release - working\Death March\[anti-raws]Death March kara Hajimaru Isekai Kyousoukyoku ep.01[BDRemux].mkv
Формат : Matroska
Версия формата : Version 4 / Version 2
Размер файла : 6,46 Гбайт
Продолжительность : 23 м. 42 с.
Режим общего битрейта : Переменный
Общий поток : 39,0 Мбит/сек
Дата кодирования : UTC 2018-05-27 16:23:01
Программа кодирования : mkvmerge v23.0.0 ('The Bride Said No') 64-bit
Библиотека кодирования : libebml v1.3.6 + libmatroska v1.4.9

Видео
Идентификатор : 2
Формат : AVC
Формат/Информация : Advanced Video Codec
Профиль формата : [email protected]
Настройки формата : CABAC / 4 Ref Frames
Параметр CABAC формата : Да
Параметр RefFrames формата : 4 кадра
Идентификатор кодека : V_MPEG4/ISO/AVC
Продолжительность : 23 м. 42 с.
Вид битрейта : Переменный
Битрейт : 37,6 Мбит/сек
Максимальный битрейт : 39,0 Мбит/сек
Ширина : 1920 пикселей
Высота : 1080 пикселей
Соотношение сторон : 16:9
Режим частоты кадров : Постоянный
Частота кадров : 23,976 (24000/1001) кадра/сек
Цветовое пространство : YUV
Субдискретизация насыщенности : 4:2:0
Битовая глубина : 8 бит
Тип развёртки : Прогрессивная
Бит/(Пиксели*Кадры) : 0.756
Размер потока : 6,22 Гбайт (96%)
Default : Нет
Forced : Нет

Аудио
Идентификатор : 1
Формат : FLAC
Формат/Информация : Free Lossless Audio Codec
Идентификатор кодека : A_FLAC
Продолжительность : 23 м. 42 с.
Вид битрейта : Переменный
Битрейт : 1445 Кбит/сек
Каналы : 2 канала
Расположение каналов : Front: L R
Частота : 48,0 КГц
Частота кадров : 11,719 кадров/сек (4096 SPF)
Битовая глубина : 24 бит
Размер потока : 245 Мбайт (4%)
Библиотека кодирования : libFLAC 1.2.1 (UTC 2007-09-17)
Язык : Japanese
Default : Да
Forced : Нет

Меню
00:00:00.000 : en:00:00:00.000
00:01:44.021 : en:00:01:44.021
00:03:13.985 : en:00:03:13.985
00:12:42.011 : en:00:12:42.011
00:22:04.990 : en:00:22:04.990
00:23:34.997 : en:00:23:34.997
...5505738
--HDTVRip

...5506131
--WEBRip

...5553667
--BDRip

Эта раздача - BDRemux


Трекер:  [ 27-Май-2018 20:30 ]

  

Скачать .torrent

Размер .torrent файла 38 KB


Размер: 26.81 GB
Хэш (hash) релиза: ca1c1c36384738440baf43b10b34dcb397d168df
Подписка на обновления:

Торренты, похожие на Марш смерти под рапсодию параллельного мира Death March kara Hajimaru Isekai Kyousoukyoku скачать торрент

Форум Название Автор Размер S L Добавлен
Аниме | HD Rips ·· Марш смерти под рапсодию параллельного мира / Death March kara Hajimaru Isekai Kyousoukyoku / Рапсодия иного мира, что началась с марша смерти [TV] [01-02 из 12] [Без хардсаба] [RUS(ext), JAP+SUB] [2018, Приключения, Фэнтези, BDRip] [1080p] Galfimbul 36294081863.38 GB 0 0 1524740479

14:01

26-Апр-18

Еще никто не оставлял запись к записи скачать торрент Марш смерти под рапсодию параллельного мира Death March kara Hajimaru Isekai Kyousoukyoku . Будь первым!

!Обратная связь