Marvel's The Punisher | Czech Republic | 120 pulsaciones por minuto

Скачать через торрент Восхитительные дети: Анлимитед Zettai Karen Children: The Unlimited - Hyoubu Kyousuke бесплатно Аниме Все серии на русском torrent

Статистика раздачи
Размер:  88.45 GB   |    Зарегистрирован:  4 месяца 18 дней   |    .torrent скачан:  32 раза   |   
Раздают:  1  
   
загрузка...
 
Автор Сообщение

Galfimbul

avatar Galfimbul


Восхитительные дети: Анлимитед / Zettai Karen Children: The Unlimited - Hyoubu Kyousuke

Год выпуска: 2013
Страна: Япония
Жанр: приключения, мистика
Тип: TV
Продолжительность: 12 эп. по 25 мин.
Озвучка:

Одноголосая (муж) от JAM (AniMedia)
Одноголосая (муж) от MifSnaiper (AnimeReactor)
Двухголосая (муж/жен) от Carrier88 & Orwald
Одноголосая (муж) от HYVER (Renegade Team)

Русские субтитры: есть (отдельным файлом, формат .ass)
Перевод:

BO3DYX [Ambiente]

Хардсаб: Нет
Режиссер: Игараси Тацуя
Студия: Manglobe Inc.

Описание: Обладатели сверхспособностей давно стали частью этого мира. Эсперы, как и обычные люди, бывают разные: кто живет для других, кто использует дар только для себя, а на остальных ему плевать. Чтобы удержать власть, успешно бороться с хитрыми преступниками и гениальными бунтарями, хозяева жизни из разных стран используют собственных одаренных – как взрослых, которых держат на крючке, так и детей, которыми легче управлять. Для «восхитительных детишек» Каору, Аой и Сихо, чьи приключения стали широко известны, мир, конечно, прост и понятен, но, может, у другой стороны тоже есть своя правда?

Когда-то Кёсукэ Хёбу тоже служил родной стране под началом любимого командира, за что благодарное Отечество наградило его – пулей в голову. Выжив и окрепнув в боях, Кёсукэ создал организацию ПАНДРА, выручил из беды немало сородичей и повел личную войну против тех, кто использует эсперов как расходный материал, как топливо для своих амбиций. Разумеется, власти объявили Хёбу террористом номер один, но среди обладателей дара отношение к мрачному одиночке иное, и даже «детишки» начали, похоже, кое-что понимать. А что же сам «ловец человеков»? А он в ходе вечной борьбы может лишь ждать и надеяться, что одна рыжая вырастет, поумнеет и станет, наконец, достойной его королевой!
©Hollow, World Art

Качество: Blu-Ray Remux
Формат: MKV
Видео кодек: AVC
Аудио кодек: FLAC
Видео: 1920x1080 (16:9) 23,976 fps ~36,4 Mbps 8bit
Аудио:
Jap FLAC, 48000Hz, ~1438 Kbps, 2ch
RUS 1 (ext) AAC, 48000Hz, ~192 Kbps, 2ch
RUS 2 (ext) AAC, 44100Hz, ~128 Kbps, 2ch
RUS 3 (ext) AAC, 48000Hz, ~164 Kbps, 2ch
RUS 4 (ext) MP3, 44100Hz, ~320 Kbps, 2ch

Чаптеры присутствуют.
01. Паранормальный побег
02. Мелодия убийства
03. Чистота и грязь
04. Абсолютная область
05. Странники
06. Тьма, бег
07. Отряд экстрасенсов I
08. Отряд экстрасенсов II
09. Катастрофа
10. Далёкий рай
11. Двое посреди бури
12. На встречу будущему
Общее
Уникальный идентификатор : 47692004959793717753847436283052244541 (0x23E12563452C3392C4A0FF50F15F3E3D)
Полное имя : Z:\Anime Release - working\Zettai2_V2\[anti-raws]Zettai Karen Children The Unlimited - Hyoubu Kyousuke ep.01[BDRemux].mkv
Формат : Matroska
Версия формата : Version 4 / Version 2
Размер файла : 6,59 Гбайт
Продолжительность : 24 м. 22 с.
Режим общего битрейта : Переменный
Общий поток : 38,7 Мбит/сек
Дата кодирования : UTC 2018-05-17 17:10:54
Программа кодирования : mkvmerge v23.0.0 ('The Bride Said No') 64-bit
Библиотека кодирования : libebml v1.3.6 + libmatroska v1.4.9

Видео
Идентификатор : 2
Формат : AVC
Формат/Информация : Advanced Video Codec
Профиль формата : [email protected]
Настройки формата : CABAC / 2 Ref Frames
Параметр CABAC формата : Да
Параметр RefFrames формата : 2 кадра
Параметр GOP формата : M=1, N=10
Идентификатор кодека : V_MPEG4/ISO/AVC
Продолжительность : 24 м. 22 с.
Вид битрейта : Переменный
Битрейт : 37,3 Мбит/сек
Ширина : 1920 пикселей
Высота : 1080 пикселей
Соотношение сторон : 16:9
Режим частоты кадров : Постоянный
Частота кадров : 23,976 (24000/1001) кадра/сек
Цветовое пространство : YUV
Субдискретизация насыщенности : 4:2:0
Битовая глубина : 8 бит
Тип развёртки : Прогрессивная
Бит/(Пиксели*Кадры) : 0.749
Размер потока : 6,34 Гбайт (96%)
Default : Нет
Forced : Нет

Аудио
Идентификатор : 1
Формат : FLAC
Формат/Информация : Free Lossless Audio Codec
Идентификатор кодека : A_FLAC
Продолжительность : 24 м. 22 с.
Вид битрейта : Переменный
Битрейт : 1437 Кбит/сек
Каналы : 2 канала
Расположение каналов : Front: L R
Частота : 48,0 КГц
Частота кадров : 11,719 кадров/сек (4096 SPF)
Битовая глубина : 24 бит
Размер потока : 250 Мбайт (4%)
Библиотека кодирования : libFLAC 1.2.1 (UTC 2007-09-17)
Язык : Japanese
Default : Да
Forced : Нет

Меню
00:00:00.000 : en:00:00:00.000
00:01:28.005 : en:00:01:28.005
00:02:58.053 : en:00:02:58.053
00:10:53.069 : en:00:10:53.069
00:22:35.020 : en:00:22:35.020
00:24:05.069 : en:00:24:05.069
...4393890
...4312713
...4334156
...4311193
--HDTVRip

...4335894
--WEBRip

...4448255
...4782836
--BDRip

Эта раздача - BDRemux


Трекер:  [ 27-Май-2018 20:01 ]

  

Скачать .torrent

Размер .torrent файла 124 KB


Размер: 88.45 GB
Хэш (hash) релиза: 7a95a9cda2582c13087c85bae67e94dac1f9416b
Подписка на обновления:

Торренты, похожие на Восхитительные дети: Анлимитед Zettai Karen Children: The Unlimited - Hyoubu Kyousuke скачать торрент

Форум Название Автор Размер S L Добавлен
Аниме | HD Rips ·· Восхитительные дети: Анлимитед / Zettai Karen Children: The Unlimited - Hyoubu Kyousuke [TV] [12 из 12] [Без хардсаба] [RUS(int), JAP] [2013 г., Приключения, HDTVRip] [720p] damien1990 45794486874.26 GB 0 0 1364508783

01:13

29-Мар-13

Аниме | HD Rips ·· Восхитительные дети: Анлимитед / Zettai Karen Children THE UNLIMITED: Hyoubu Kyousuke [TV] [1-10 из >12] [Без хардсаба] [JAP, SUB] [2013 г., приключения, фантастика, WEBRip] [1080p] spider91 58352625885.43 GB 0 0 1363359372

17:56

15-Мар-13

Аниме | HD Rips ·· Восхитительные дети: Анлимитед / Zettai Karen Children THE UNLIMITED: Hyoubu Kyousuke (Игараси Тацуя) [TV] [7 из XX эп.] [Без хардсаба] [RUS(int), JAP+SUB] [2013 г., приключения, фантастика, HDTVRip] [720p] Polarnik 26519794402.47 GB 0 0 1362472237

11:30

5-Мар-13

Аниме | HD Rips ·· Восхитительные дети: Анлимитед / Zettai Karen Children THE UNLIMITED: Hyoubu Kyousuke [TV] [01-07 из 26] [Без хардсаба] [RUS(int), JAP+ SUB] [2013 г., приключения, фантастика, HDTVRip] [720p] Polarnik 25991668252.42 GB 0 0 1361730625

21:30

24-Фев-13

Аниме | HD Rips ·· Восхитительные дети: Анлимитед / Безграничный: Хёбу Кёске / Zettai Karen Children: The Unlimited - Hyoubu Kyousuke [TV] [12 из 12] [Без хардсаба] [JAP, SUB] [2013 г., приключения, мистика, BDRip] [720p] Galfimbul 56066434985.22 GB 0 0 1414188475

01:07

25-Окт-14

Аниме | HD Rips ·· Восхитительные дети: Анлимитед / Безграничный: Хёбу Кёске / Courtesy of Zettai Karen Children: The Unlimited - Hyoubu Kyousuke (Игараси Тацуя) [TV][2 из 12][без хардсаба][RUS(ext),JAP+SUB] [2013 г., приключения, мистика, BDRip] [1080p] Polarnik 30103484532.8 GB 0 0 1369471095

11:38

25-Май-13

Еще никто не оставлял запись к записи скачать торрент Восхитительные дети: Анлимитед Zettai Karen Children: The Unlimited - Hyoubu Kyousuke . Будь первым!

!Обратная связь