Grand Theft Auto V (Rgh-Jtag)(14.1 Gb)(Español) | Дом Рэйвен / Raven's Home [02x01-06 из 13] (2018) HDTVRip 720p | ColdFilm | Link Video

Скачать через торрент Мой Шумный Дом The Loud House Фильм бесплатно в хорошем качестве torrent

Скачивайте на UnionPeer.org фильмы через торрент без регистрации. Новинки кино в хорошем качестве через торрент. На UnionPeer.org можно скачать через торрент фильмы 2014 и 2015 годов. Самые новые фильмы.

Скачать торрент Мой Шумный Дом The Loud House бесплатно через .torrent фильм мультфильм сериал

Статистика раздачи
Размер:  795 MB   |    Зарегистрирован:  2 месяца 25 дней   |    .torrent скачан:  36 раз   |   
Раздают:  1  
   
загрузка...
 
Автор Сообщение

Galfimbul

avatar Galfimbul


Мой Шумный Дом / The Loud House

Страна: США
Жанр: Комедия, Приключения
Продолжительность серии: 23 мин
Год выпуска: 2016-2017
Перевод: Профессиональный (дублированный)
Русские субтитры: нет

Режиссёр: Крис Савино / Chris Savino
Роли озвучивали: Grant Palmer, Catherine Taber, Liliana Mumy, Nika Futterman, Cristina Pucelli, Jessica DiCicco, Grey Griffin, Lara Jill Miller

Описание: Добро пожаловать в наш шумный дом!
Дом, где живут Лори, Лени, Луна, Луан, Линн, Люси, Лана, Лола, Лиза, Лили и Линкольн Лауды!
Поскольку Линкольн — единственный брат пяти младших и пяти старших сестёр в доме с одной ванной, жизнь его может слететь с катушек в любой момент. Непредсказуемые перестановки мебели и взрывные научные эксперименты, поиски идеального места для долгой семейной поездки... нет для Линкольна в мире нерешаемых проблем, как и слишком тесных спален! И всё же он не променяет эту жизнь ни на какую другую.
А знаете, какой секрет помогает Линкольну выжить в этом шумном доме? У него всегда есть план. И с небольшой помощью своего лучшего друга Клайда Линкольн может справиться с любым препятствием из тех, что создают ему сёстры.

Список серий:
01a 11 Louds a Leapin /
02a Intern for the Worse / Хорошему не Научат
02b The Old and the Restless / Старики-Разбойники
03a Baby Steps /
03b Brawl in the Family /
04a Suite and Sour / Беда в Отеле
04b Back in Black / Чёрный Цвет Возвращается
05a Making the Grade / Вундеркинд Рулит
05b Vantastic Voyage / Фургзила Против Вероники

Семпл: http://multi-up.com/1199655

Качество: WEB-DLRip
Формат: AVI
Видео: XVID 720х400 (16:9), 23.976 fps, ~ 1 494 kbps
Аудио: Русский, MP3, 2 ch, 128 kbps, 48 kHz
Субтитры: Нет
GeneralComplete name : Y:\Раздачи\Рип\The.Loud.House.S02.2016-2017.XVID.WEB-DLRip.400p-Romanych_777\02 Intern for the Worse + The Old and the Restless.aviFormat : AVIFormat/Info : Audio Video InterleaveFile size : 265 MiBDuration : 22 min 42 sOverall bit rate : 1 631 kb/sWriting application : VirtualDubMod 1.5.10.3 | www.virtualdub-fr.org || (build 2550/release)Writing library : VirtualDubMod build 2550/release

VideoID : 0Format : MPEG-4 VisualFormat profile : Advanced [email protected] settings : BVOP1Format settings, BVOP : 1Format settings, QPel : NoFormat settings, GMC : No warppointsFormat settings, Matrix : Default (H.263)Codec ID : XVIDCodec ID/Hint : XviDDuration : 22 min 42 sBit rate : 1 494 kb/sWidth : 720 pixelsHeight : 400 pixelsDisplay aspect ratio : 16:9Frame rate : 23.976 (24000/1001) FPSColor space : YUVChroma subsampling : 4:2:0Bit depth : 8 bitsScan type : ProgressiveCompression mode : LossyBits/(Pixel*Frame) : 0.216Stream size : 243 MiB (92%)Writing library : XviD 1.2.1 (UTC 2008-12-04)

AudioID : 1Format : MPEG AudioFormat version : Version 1Format profile : Layer 3Codec ID : 55Codec ID/Hint : MP3Duration : 22 min 42 sBit rate mode : ConstantBit rate : 128 kb/sChannel(s) : 2 channelsSampling rate : 48.0 kHzFrame rate : 41.667 FPS (1152 SPF)Compression mode : LossyStream size : 20.8 MiB (8%)Alignment : Aligned on interleavesInterleave, duration : 42 ms (1.00 video frame)Interleave, preload duratio : 504 msWriting library : LAME3.99rEncoding settings : -m s -V 4 -q 2 -lowpass 17 -b 128
Предыдущие и альтернативные раздачи

Трекер:  [ 27-Май-2018 13:54 ]

  

Скачать .torrent

Размер .torrent файла 16 KB


Размер: 795 MB
Хэш (hash) релиза: 37c251fbd4058a28fdde02d75eb9b893b36c3dc2
Подписка на обновления:

Еще никто не оставлял запись к записи скачать торрент Мой Шумный Дом The Loud House . Будь первым!

!Обратная связь