Thor: Ragnarok (2017) RATING 7.9 / 10 QUALITY | X-Men Orígenes: Lobezno | lồng tiếng việt

Скачать через торрент Обан Звездные Гонки Oban Star Racers Фильм бесплатно в хорошем качестве torrent

Скачивайте на UnionPeer.org фильмы через торрент без регистрации. Новинки кино в хорошем качестве через торрент. На UnionPeer.org можно скачать через торрент фильмы 2014 и 2015 годов. Самые новые фильмы.

Скачать торрент Обан Звездные Гонки Oban Star Racers бесплатно через .torrent фильм мультфильм сериал

Статистика раздачи
Размер:  8.22 GB   |    Зарегистрирован:  4 месяца 22 дня   |    .torrent скачан:  32 раза   |   
Раздают:  1  
   
загрузка...
 
Автор Сообщение

Galfimbul

avatar Galfimbul


Обан Звездные Гонки / Oban Star Racers

Страна: Франция, Япония
Жанр: приключения, драма, спорт
Продолжительность серии: 00:22:36
Год выпуска: 2006
Перевод: Профессиональный (дублированный)
Русские субтитры: нет

Режиссёр: Савин Йетмен / Savin Yeatman-Eiffel, Томас Ромейн / Thomas Romain

Роли озвучивали: Дзюнко Нода, Кьяра Дзанни, Майкл Добсон, Рон Халдер, Унсё Исидзука, Хироаки Миура, Кирби Морроу, Кеиитиро Сатоми, Роберт Тсонос, Сэм Винсент
Роли дублировали: Елена Чебатуркина, Пётр Иващенко, Олег Вирозуб

Описание: Раз в 10.000 лет, великие звездные пилоты со всей вселенной встречаются на легендарной планете ОБАН, чтобы участвовать в грандиозных гонках и выиграть Великий приз. Для команды Земли, Великие Гонки это шанс победить их смертельных инопланетных соседей - Крогов, их планы - уничтожить всю человеческую расу! Проблема в том, что после серьезной травмы первого пилота, надежды на победу Земной команды возлагается на плечи 15 летней девочки по имени Молли.

Семпл
Ссылка на предыдущие и альтернативные раздачи

Качество: DVDRip
Формат: AVI
Видео: 640x480 (1.33:1), 23.976 fps, XviD build 73 ~1799 kbps avg, 0.24 bit/pixel
Аудио: 48 kHz, AC3 Dolby Digital, 2/0 (L,R) ch, ~192 kbps
Субтитры: отсутствуют
01. Первый старт / Un nouveau départ
02. Взрыв враждебности / Les hostilités commencent
03. Злобный как Груор / Guerrier comme Grooor
04. Могучий как Флинт / Flamboyant comme Flint
05. Хитрый как Церес / Cruel comme Cérès
06. Игривый как Пара-Дайз / Piquée comme Para-Dice
07. Вероломный как Торос / Traître comme Toros
08. Быстрый как Айкка / Agile comme Aikka
09. Необычный как Супер-гонщик / Surprenant comme Super-Racer
10. Упрямый как Раш / Robuste comme Rush
11. Тихий как Спирит / Silencieux comme Spirit
12. Воля к победе / Le coeur au ventre
13. Вперёд! / Dernière ligne droite
14. Добро пожаловать на Обан! / Bienvenue sur Oban
15. Свирепый как лорд Фёртер / Furieux comme Lord Furter
16. Нервный как Нинг и Скан / Nerveuses comme Ning et Skun
17. Самоуверенный как Ондей / Optimisé comme Ondai
18. Ужасный как Муир / Monstrueux comme Muir
19. Происхождение мира / L'origine du monde
20. Таинственный как Сул / Secret comme Sul
21. Зловещий как Оу / Omniscient comme O
22. Откровение / Révélations
23. Жестокий как Кросс / Cruel comme Kross
24. Месть Каналетто / La revanche de Canaletto
25. Неожиданный союзник / Le triomphe de Canaletto
26. Момент истины! / Le moment de vérité
GeneralComplete name : H:\Oban.Star-Racers.2006.dvdrip_[teko]\s01e01_A.Fresh.Start .aviFormat : AVIFormat/Info : Audio Video InterleaveFile size : 324 MiBDuration : 22mn 36sOverall bit rate : 2 001 KbpsWriting application : VirtualDubMod 1.5.10.3 | www.virtualdub-fr.org || (build 2550/release)Writing library : VirtualDubMod build 2550/release

VideoID : 0Format : MPEG-4 VisualFormat profile : Advanced [email protected] settings, BVOP : 2Format settings, QPel : NoFormat settings, GMC : No warppointsFormat settings, Matrix : CustomCodec ID : XVIDCodec ID/Hint : XviDDuration : 22mn 36sBit rate : 1 800 KbpsWidth : 640 pixelsHeight : 480 pixelsDisplay aspect ratio : 4:3Frame rate : 23.976 (24000/1001) fpsColor space : YUVChroma subsampling : 4:2:0Bit depth : 8 bitsScan type : ProgressiveCompression mode : LossyBits/(Pixel*Frame) : 0.244Stream size : 291 MiB (90%)Writing library : XviD 73

AudioID : 1Format : AC-3Format/Info : Audio Coding 3Mode extension : CM (complete main)Format settings, Endianness : BigCodec ID : 2000Duration : 22mn 36sBit rate mode : ConstantBit rate : 192 KbpsChannel(s) : 2 channelsChannel positions : Front: L RSampling rate : 48.0 KHzFrame rate : 31.250 fps (1536 spf)Compression mode : LossyStream size : 31.0 MiB (10%)Alignment : Split accross interleavesInterleave, duration : 42 ms (1.00 video frame)Interleave, preload duratio : 500 ms
Релиз группы:





Трекер:  [ 26-Май-2018 15:24 ]

  

Скачать .torrent

Размер .torrent файла 43 KB


Размер: 8.22 GB
Хэш (hash) релиза: b8fc2ec05b696d4db1edef5a9cfc296272f0c9cf
Подписка на обновления:

Еще никто не оставлял запись к записи скачать торрент Обан Звездные Гонки Oban Star Racers . Будь первым!

!Обратная связь