Petrocelli | WWE.RAW.2017.12.04.HDTV.x264-Ebi.mp4 | Conductor de Beat

Скачать через торрент Денежное поле Gurazeni бесплатно Аниме Все серии на русском torrent

Статистика раздачи
Размер:  2.5 GB   |    Зарегистрирован:  2 месяца 24 дня   |    .torrent скачан:  32 раза   |   
Раздают:  1  
   
загрузка...
 
Автор Сообщение

Galfimbul

avatar Galfimbul



Денежное поле / Gurazeni: Money Pitch
Страна: Япония
Год выпуска: 2018
Жанр: спорт, комедия, драма, сэйнэн
Тип: TV
Продолжительность: >13 эп., ~ 25 мин. серия
Режиссер: Ватанабэ Аюму
Студия: Studio DEEN
Описание:Бейсбол — это интересно? Навряд ли так думают те, кто не является фанатом этой игры. Однако никто не будет спорить с тем, что бейсбол — это прибыльно. И Нацуноскэ Бонда об этом знает не по наслышке. Ведь он — не просто фанат или болельщик, а самый настоящий профессиональный игрок! Вот уже восемь лет Бонда играет в довольно популярной токийской команде «Пауки» на позиции релиф-питчера. В принципе, этот коллектив ничем не отличался бы от десятков японских бейсбольных команд, если бы не оригинальный подход к начислению зарплаты. У Пауков все честно: хорошо сыграл — хорошо заработал. Само собой, при таком подходе к оплате в команде есть свои лузеры и свои рокфеллеры. И Нацуноскэ — один из самых богатых игроков. Такая система со временем заставляет героя истории конвертировать мастерство всех бейсболистов исключительно в национальную валюту. Для поддержания имиджа «золотого питчера», зарабатывающего по 18 миллионов иен за сезон, он готов бросить вызов самым перспективным из них и успешно делает это, но… Действительно ли деньги являются главной причиной для 26-летнего Нацуноскэ или им движет что-то еще помимо обычной человеческой алчности? Ведь успех в спорте далеко не всегда можно измерить толщиной кошелька.
© Risens Team
World-Art | AniDB
Качество: WEBRip
Тип релиза: Без хардсаба
Формат видео: MKV
Наличие линковки: Нет
Релиз: [HorribleSubs]
Видео: 1280x720, x264, 1 776 kb/s, 23.976 fps, 8 бит
Аудио: AAC, 128 kb/s, 2 ch, 44.1 kHz Язык Японский
Субтитры: внешние, язык субтитров русский; Перевод: Sashas840 [Risens Team]
Format : MatroskaFormat version : Version 4 / Version 2File size : 319 MiBDuration : 23 min 29 sOverall bit rate : 1 899 kb/sEncoded date : UTC 2018-05-25 18:46:36Writing application : mkvmerge v23.0.0 ('The Bride Said No') 64-bitWriting library : libebml v1.3.6 + libmatroska v1.4.9Attachments : MagistralC-Bold.otf

VideoID : 1Format : AVCFormat/Info : Advanced Video CodecFormat profile : [email protected] settings : CABAC / 6 Ref FramesFormat settings, CABAC : YesFormat settings, ReFrames : 6 framesCodec ID : V_MPEG4/ISO/AVCDuration : 23 min 29 sBit rate : 1 776 kb/sWidth : 1 280 pixelsHeight : 720 pixelsDisplay aspect ratio : 16:9Frame rate mode : VariableFrame rate : 23.976 (23976/1000) FPSColor space : YUVChroma subsampling : 4:2:0Bit depth : 8 bitsScan type : ProgressiveBits/(Pixel*Frame) : 0.080Stream size : 297 MiB (93%)Writing library : x264 core 120 r2120 0c7dab9Encoding settings : cabac=1 / ref=6 / deblock=1:1:1 / analyse=0x3:0x113 / me=umh / subme=8 / psy=1 / psy_rd=0.40:0.00 / mixed_ref=1 / me_range=16 / chroma_me=1 / trellis=1 / 8x8dct=1 / cqm=0 / deadzone=21,11 / fast_pskip=1 / chroma_qp_offset=-2 / threads=4 / sliced_threads=0 / nr=0 / decimate=1 / interlaced=0 / bluray_compat=0 / constrained_intra=0 / bframes=3 / b_pyramid=2 / b_adapt=2 / b_bias=0 / direct=3 / weightb=1 / open_gop=0 / weightp=2 / keyint=250 / keyint_min=23 / scenecut=40 / intra_refresh=0 / rc_lookahead=50 / rc=2pass / mbtree=1 / bitrate=1776 / ratetol=1.0 / qcomp=0.60 / qpmin=0 / qpmax=69 / qpstep=4 / cplxblur=20.0 / qblur=0.5 / vbv_maxrate=3552 / vbv_bufsize=8880 / nal_hrd=none / ip_ratio=1.40 / aq=1:0.60Default : YesForced : No

AudioID : 2Format : AACFormat/Info : Advanced Audio CodecFormat profile : LCCodec ID : A_AAC-2Duration : 23 min 29 sBit rate : 128 kb/sChannel(s) : 2 channelsChannel positions : Front: L RSampling rate : 44.1 kHzFrame rate : 43.066 FPS (1024 SPF)Compression mode : LossyStream size : 21.5 MiB (7%)Language : JapaneseDefault : YesForced : No
1. Мое место работы / Спот Стартер
2. Стремление / Товарищи
3. Клуб по интересам
4. Путь на пенсию / Мужчина, который не смог стать Pro
5. Низкие и Высокие Ставки
6. Множитель
7. Из Низшей Лиги в Высшую
8. Поездка на стадион
9. Учитель или поучительная история?
Эфир 9-го эпизода намечен на 01.06.2018

Трекер:  [ 25-Май-2018 22:30 ]

  

Скачать .torrent

Размер .torrent файла 14 KB


Размер: 2.5 GB
Хэш (hash) релиза: aa3e15f408700d52ada83ac9e93b3224e9f3e556
Подписка на обновления:

Еще никто не оставлял запись к записи скачать торрент Денежное поле Gurazeni . Будь первым!

!Обратная связь