Angel Beats Alchemy.mp3 | Terra Formars | dataup.tv

Скачать через торрент Невероятный Халк The Incredible Hulk Фильм бесплатно в хорошем качестве torrent

Скачивайте на UnionPeer.org фильмы через торрент без регистрации. Новинки кино в хорошем качестве через торрент. На UnionPeer.org можно скачать через торрент фильмы 2014 и 2015 годов. Самые новые фильмы.

Скачать торрент Невероятный Халк The Incredible Hulk бесплатно через .torrent фильм мультфильм сериал

Статистика раздачи
Размер:  8.98 GB   |    Зарегистрирован:  2 месяца 28 дней   |    .torrent скачан:  35 раз   |   
Раздают:  1  
   
загрузка...
 
Автор Сообщение

Galfimbul

avatar Galfimbul



Невероятный Халк

The Incredible Hulk


Год выпуска: 1996-1997
Страна: США
Жанр: приключения, экшен, экранизация комиксов
Продолжительность: ТВ (21 эп.), ~ 21 минута
Перевод: Профессиональный (полное дублирование)
Русские субтитры: нет
Режиссер: Рон Мирик, Эрнесто Лопез, Том Таранович / Ron Myrick, Ernesto Lopez, Tom Tataranowicz
Описание: При неудачном эксперименте с питательным раствором Рик Джонс получает большую дозу радиации и превращается в зеленого мутанта, а Бэннер трансформируется в Серого Халка, еще более опасного. Генерал Росс пробует убить Серого Халка, но оказывается в опасности и Серый Халк спасает ему жизнь. Росс лежит в коме, а Бэннера пытаются обвинить в покушении на него. Женщина-Халк выступает, как защитник Бэннера в суде. Тем временем Вождь и Горгулья пытаются поймать мутировавшего Рика Джонса…
Доп. Информация: В данном рипе максимально устранены проблемы с интерлейсом, "лесенкой", убрана "радуга", полностью убраны "шахматы", почищена картинка от шумов и ореолов.

Спасибо Ibraghim за украинские DVD (1-10, 16-21 серии), Ksenya-L-V за недостающий звук (11-15 серии).

P/S Во всех раздачах на трекере отсутствует Intro в начале серий, тут оно на месте.
Ссылка на остальные раздачи | Сэмпл
Качество: DVDRip-AVC [Исходники DVD5+DVD9]
Авторы рипа: SOFCJ [энкод видео], Urotsuki [фильтрация видео]
Формат: MKV
Видео: x264, 8bit, [email protected], (4:3), 25fps, ~2700 kbps
Аудио: AC3 Dolby Digital, 48000 Hz, 2ch, 256kbps [серии 11-15 192kbps]
1 сезон:
01. Return Of The Beast. Part 1 / Возвращение. Часть 1
02. Return Of The Beast. Part 2 / Возвращение. Часть 2
03. Raw Power / Чистая энергия
04. Helping Hand, Iron Fist / Стальной кулак помощи
05. Innocent Blood / Невинная кровь
06. Man To Man, Beast To Beast / Человек или зверь?
07. Dommed / Обреченный
08. Fantastic Fortitude / Фантастическая стойкость
09. Mortal Bounds / Смертельные узы
10. And The Wind Cries... Wendigo! / И ветер проревет...Вендиго!
11. Darkness And Light. Part 1 / Свет и тьма. Часть 1
12. Darkness And Light. Part 2 / Свет и тьма. Часть 2
13. Darkness And Light. Part 3 / Свет и тьма. Часть 3

2 сезон:
1. A Hulk of a Different Colour / Халк другого цвета
2. Down Memory Lane / Вдоль по улице
3. Mind Over Anti-Matter / Сознание превыше анти-материи
4. They Call Me Mr. Fixit / Меня называют мистер "Нет проблем"
5. Fashion Warriors / Солдаты красоты
6. Hollywood Rocks / Голливудские камни
7. The Lost Village / Затерянный город
8. Mission: Incredible / Миссия невыполнима
Complete name : [SOFCJ-Raws] The Incredible Hulk TAS 1x06 (06) Man To Man, Beast To Beast [DVDRip].mkvFormat : MatroskaFormat version : Version 4 / Version 2File size : 444 MiBDuration : 20 min 56 sOverall bit rate : 2 962 kb/sMovie name : [SOFCJ-Raws] The Incredible Hulk TAS 1x06 (06) Man To Man, Beast To Beast [DVDRip]Encoded date : UTC 2018-05-02 20:28:57Writing application : mkvmerge v8.3.0 ('Over the Horizon') 64bitWriting library : libebml v1.3.1 + libmatroska v1.4.2

VideoID : 1Format : AVCFormat/Info : Advanced Video CodecFormat profile : [email protected] settings : CABAC / 9 Ref FramesFormat settings, CABAC : YesFormat settings, ReFrames : 9 framesCodec ID : V_MPEG4/ISO/AVCDuration : 20 min 56 sBit rate : 2 704 kb/sWidth : 720 pixelsHeight : 576 pixelsDisplay aspect ratio : 4:3Frame rate mode : ConstantFrame rate : 25.000 FPSStandard : PALColor space : YUVChroma subsampling : 4:2:0Bit depth : 8 bitsScan type : ProgressiveBits/(Pixel*Frame) : 0.261Stream size : 405 MiB (91%)Writing library : x264 core 155 r2901 7d0ff22Encoding settings : cabac=1 / ref=9 / deblock=1:1:-1 / analyse=0x3:0x113 / me=umh / subme=9 / psy=1 / psy_rd=1.00:0.00 / mixed_ref=1 / me_range=32 / chroma_me=1 / trellis=2 / 8x8dct=1 / cqm=0 / deadzone=21,11 / fast_pskip=1 / chroma_qp_offset=-2 / threads=12 / lookahead_threads=2 / sliced_threads=0 / nr=0 / decimate=1 / interlaced=0 / bluray_compat=0 / constrained_intra=0 / bframes=9 / b_pyramid=2 / b_adapt=2 / b_bias=0 / direct=1 / weightb=1 / open_gop=0 / weightp=2 / keyint=250 / keyint_min=25 / scenecut=40 / intra_refresh=0 / rc=crf / mbtree=0 / crf=15.5 / qcomp=0.72 / qpmin=0 / qpmax=69 / qpstep=4 / ip_ratio=1.40 / pb_ratio=1.30 / aq=1:1.00Language : EnglishDefault : YesForced : NoColor range : LimitedColor primaries : BT.601 PALTransfer characteristics : BT.470 System B/GMatrix coefficients : BT.470 System B/G

AudioID : 2Format : AC-3Format/Info : Audio Coding 3Codec ID : A_AC3Duration : 20 min 56 sBit rate mode : ConstantBit rate : 256 kb/sChannel(s) : 2 channelsChannel positions : Front: L RSampling rate : 48.0 kHzFrame rate : 31.250 FPS (1536 SPF)Bit depth : 16 bitsCompression mode : LossyStream size : 38.3 MiB (9%)Title : DubLanguage : RussianService kind : Complete MainDefault : YesForced : No


Трекер:  [ 24-Май-2018 10:54 ]

  

Скачать .torrent

Размер .torrent файла 47 KB


Размер: 8.98 GB
Хэш (hash) релиза: e3f3b6a94e7b507f3a759f999e7c7b07ba57115f
Подписка на обновления:

Еще никто не оставлял запись к записи скачать торрент Невероятный Халк The Incredible Hulk . Будь первым!

!Обратная связь