Castle (2009) | The Handmaid’s Tale : la servante écarlate | Tom Hiddlesto...

Скачать через торрент Наш мультяшный президент Our Cartoon President Фильм бесплатно в хорошем качестве torrent

Скачивайте на UnionPeer.org фильмы через торрент без регистрации. Новинки кино в хорошем качестве через торрент. На UnionPeer.org можно скачать через торрент фильмы 2014 и 2015 годов. Самые новые фильмы.

Скачать торрент Наш мультяшный президент Our Cartoon President бесплатно через .torrent фильм мультфильм сериал

Статистика раздачи
Размер:  2.79 GB   |    Зарегистрирован:  1 месяц   |    .torrent скачан:  28 раз   |   
Раздают:  1  
   
загрузка...
 
Автор Сообщение

Galfimbul

avatar Galfimbul


Наш мультяшный президент / Our Cartoon President

Год выпуска: 2018
Страна: США
Жанр: комедия, мультфильм
Продолжительность: ~30 минут

Перевод: любительский (многоголосый закадровый) BaibaKo

Режиссёр: Мак Уильямс, Стив Коннер

В ролях: Джефф Бергман, Джеймс Адомиан, Гэбриел Гандакер, Джеймс Монро Иглхарт, Коуди Линдквист, Эмили Линн, Уильям Сэдлер

Описание: анимационная «офисная» комедия, в которой кабинет начальника — овальный. Главные герои — президент США Дональд Трамп, его семья, министры, советники, главы других государств и прочие гости и обитатели Белого дома. Каждая серия — это типичный день из жизни самого скандального и неоднозначного президента в истории Штатов

Доп. информация: перевод песен — невшитыми субтитрами

Предыдущие и альтернативные раздачи
Сэмпл

Качество: WEBRip
Формат: MKV
Видео: 1280x720 (16:9), V_MPEG4/ISO/AVC/h.264, 23.976 fps, 1181 kbps
Аудио 1: AC3, 48,0 КГц, 2 ch, 192 kbps, русский
Аудио 2: AC3, 48,0 КГц, 2 ch, 192 kbps, английский
Субтитры: английские, русские (на песни)
Реклама: отсутствует
1 серия - State of the Union / Обращение к нации
2 серия - Disaster Response / Чрезвычайные меры
3 серия - Rolling Back Obama / Свести Обаму на нет
4 серия - Family Leave / По семейным обстоятельствам
5 серия - State Dinner / Правительственный обед
6 серия - Media Strategy / Стратегия взаимодействия со СМИ
7 серия - Wealth Gap / Богачи и бедняки
8 серия - Government Shutdown / Простой правительства
9 серия - Church and State / Церковь и государство
10 серия - First Pitch / Первая подача
Общее
Уникальный идентификатор : 181913581036590009073780200520901519379 (0x88DB480356195CE3895A7743F30CE813)
Полное имя : D:\Our Cartoon President. Season 1\Our Cartoon President 01x01 State of the Union.WEBRip.720p.BaibaKo.mkv
Формат : Matroska
Версия формата : Version 4 / Version 2
Размер файла : 301 Мбайт
Продолжительность : 26 м.
Режим общего битрейта : Переменный
Общий поток : 1596 Кбит/сек
Дата кодирования : UTC 2018-05-21 06:22:13
Программа кодирования : mkvmerge v9.4.0 ('Knurl') 32bit
Библиотека кодирования : libebml v1.3.4 + libmatroska v1.4.5
DURATION : 00:00:58.160000000
NUMBER_OF_FRAMES : 17
NUMBER_OF_BYTES : 808
_STATISTICS_WRITING_APP : mkvmerge v9.4.0 ('Knurl') 32bit
_STATISTICS_WRITING_DATE_UTC : 2018-05-21 06:22:13
_STATISTICS_TAGS : BPS DURATION NUMBER_OF_FRAMES NUMBER_OF_BYTES

Видео
Идентификатор : 1
Формат : AVC
Формат/Информация : Advanced Video Codec
Профиль формата : [email protected]
Параметр CABAC формата : Да
Параметр ReFrames формата : 5 кадров
Идентификатор кодека : V_MPEG4/ISO/AVC
Продолжительность : 26 м.
Вид битрейта : Переменный
Битрейт : 1181 Кбит/сек
Максимальный битрейт : 4500 Кбит/сек
Ширина : 1280 пикселей
Высота : 720 пикселей
Соотношение сторон : 16:9
Режим частоты кадров : Постоянный
Частота кадров : 23,976 кадра/сек
Цветовое пространство : YUV
Субдискретизация насыщенности : 4:2:0
Битовая глубина : 8 бит
Тип развёртки : Прогрессивная
Бит/(Пиксели*Кадры) : 0.053
Размер потока : 223 Мбайт (74%)
Default : Да
Forced : Нет
Основные цвета : BT.709
Характеристики трансфера : BT.709
Коэффициенты матрицы : BT.709

Аудио #1
Идентификатор : 2
Формат : AC-3
Формат/Информация : Audio Coding 3
Расширение режима : CM (complete main)
Параметр Endianness формата : Big
Идентификатор кодека : A_AC3
Продолжительность : 26 м.
Вид битрейта : Постоянный
Битрейт : 192 Кбит/сек
Каналы : 2 канала
Расположение каналов : Front: L R
Частота : 48,0 КГц
Битовая глубина : 16 бит
Метод сжатия : С потерями
Размер потока : 36,2 Мбайт (12%)
Заголовок : BaibaKo
Язык : Russian
Default : Да
Forced : Нет

Аудио #2
Идентификатор : 3
Формат : AC-3
Формат/Информация : Audio Coding 3
Расширение режима : CM (complete main)
Параметр Endianness формата : Big
Идентификатор кодека : A_AC3
Продолжительность : 26 м.
Вид битрейта : Постоянный
Битрейт : 192 Кбит/сек
Каналы : 2 канала
Расположение каналов : Front: L R
Частота : 48,0 КГц
Битовая глубина : 16 бит
Метод сжатия : С потерями
Размер потока : 36,2 Мбайт (12%)
Язык : English
Default : Нет
Forced : Нет

Текст #1
Идентификатор : 4
Формат : UTF-8
Идентификатор кодека : S_TEXT/UTF8
Идентификатор кодека/Информация : UTF-8 Plain Text
Заголовок : BaibaKo-pesni
Язык : Russian
Default : Да
Forced : Нет

Текст #2
Идентификатор : 5
Формат : UTF-8
Идентификатор кодека : S_TEXT/UTF8
Идентификатор кодека/Информация : UTF-8 Plain Text
Заголовок : English (SDH)
Язык : English
Default : Нет
Forced : Нет


Трекер:  [ 21-Май-2018 22:24 ]

  

Скачать .torrent

Размер .torrent файла 15 KB


Размер: 2.79 GB
Хэш (hash) релиза: b59386af5bee02f94d7851de891f5e600a3b8ef0
Подписка на обновления:

Торренты, похожие на Наш мультяшный президент Our Cartoon President скачать торрент

Форум Название Автор Размер S L Добавлен
Мультсериалы ·· Наш мультяшный президент / Our Cartoon President / Сезон:1 / Серии: 1-5 из 10 (Стивен Колберт, Мэтт Лаппин) [2018, США, Комедия, WEBRip] MVO (Jaskier) + Original Galfimbul 17366036481.62 GB 0 0 1521915854

21:24

24-Мар-18

Еще никто не оставлял запись к записи скачать торрент Наш мультяшный президент Our Cartoon President . Будь первым!

!Обратная связь