X Files : Aux frontières du réel | Xena, la guerrière | You Are Wanted

Скачать через торрент Босс-молокосос: Снова в деле The Boss Baby: Back in Business Фильм бесплатно в хорошем качестве torrent

Скачивайте на UnionPeer.org фильмы через торрент без регистрации. Новинки кино в хорошем качестве через торрент. На UnionPeer.org можно скачать через торрент фильмы 2014 и 2015 годов. Самые новые фильмы.

Скачать торрент Босс-молокосос: Снова в деле The Boss Baby: Back in Business бесплатно через .torrent фильм мультфильм сериал

Статистика раздачи
Размер:  8.65 GB   |    Зарегистрирован:  1 месяц 1 день   |    .torrent скачан:  56 раз   |   
Раздают:  1  
   
загрузка...
 
Автор Сообщение

Galfimbul

avatar Galfimbul


Босс-молокосос: Снова в деле / The Boss Baby: Back in Business
Страна: США
Жанр: Мультсериал, фэнтези, комедия, семейный
Продолжительность серии: 00:23:15
Год выпуска: 2018
Перевод: Профессиональный (многоголосый закадровый) - AlexFilm
Русские субтитры: нет
Режиссёр: Лиза Шаффер
Роли озвучивали: Дэвид В. Коллинз, Джон Пол Карлиак, Пирс Гэнон, Джэйк Грин, Кевин Майкл Ричардсон, Хоуп Леви, Эрик Белл мл., Флула Борг, Кари Уолгрен
Описание: Главный герой этого забавного мультсериала - юный...даже очень мальчишка по имени Тим, который пытается сделать все возможно, чтобы наладить дела в семейной жизни и на работе. Главный герой пусть и предстает перед зрителями как малыш, но оказывается весьма умным и довольно продвинутым персонажем. Вместе со своим братом и сообщником Тим возвращается в большой бизнес, чтобы в очередной раз диктовать свои условия мировому рынку. Конечно же, все это происходит в атмосфере комичности и убойного юмора, построенного на забавном внешнем виде главного персонажа.
Семпл: http://multi-up.com/1198888
Качество: WEB-DL 1080p
Формат: MKV
Видео: MPEG-4 AVC, 1920x1080 (16:9), 23.976 fps, 2490 Kbps, 0.050 bits/pixel
Аудио 1: AC3 | 48.0 KHz | 6 ch | 384 kbps [Rus]
Аудио 2: AC3 | 48.0 KHz | 6 ch | 384 kbps [Eng]
Субтитры: Английские
1-01. Непоседа Баски / Scooter Buskie
1-02. Кошка в колыбели / Cat's in the Cradle
1-03. Семейная вечеринка / Family Fun Night
1-04. Формула угрозы: загадки Лунного сапожника / Formula for Menace: A Dekker Moonboots Mystery
1-05. Машина-монстр / Monster Machine
1-06. Ситуация запора / The Constipation Situation
1-07. Босс - нянька / The Boss Babysitter
1-08. Ужасный дом с кучей кошек / Into the Belly of the Den of the House of the Nest of Cats
1-09. День духов / Spirit Day
1-10. Опасный авиарейс / Par Avion
1-11. Котокоп! / Cat Cop!
1-12. Держись, детка / Hang in There, Baby
1-13. Шесть хорошо пристроенных котят / Six Well-Placed Kittens
General

Complete name : Downloads\Босс-молокосос. Снова в деле. 1 сезон. AlexFilm (WEB-DL 1080p) Format : Matroska Format version : Version 2 File size : 542 MiB Duration : 23mn 15s Overall bit rate mode : Variable Overall bit rate : 3 256 Kbps Writing application : mkvmerge v7.8.0 ('River Man') 32bit built on Apr 3 2015 12:11:22 Writing library : libebml v1.3.1 + libmatroska v1.4.2 Video #1 ID : 1 Format : AVC Format/Info : Advanced Video Codec Format profile : [email protected] Format settings, CABAC : Yes Format settings, ReFrames : 3 frames Codec ID : V_MPEG4/ISO/AVC Duration : 23mn 15s Bit rate mode : Variable Bit rate : 2 490 Kbps Maximum bit rate : 3 735 Kbps Width : 1 920 pixels Height : 1 080 pixels Display aspect ratio : 16:9 Frame rate mode : Constant Frame rate : 23.976 fps Color space : YUV Chroma subsampling : 4:2:0 Bit depth : 8 bits Scan type : Progressive Bits/(Pixel*Frame) : 0.050 Stream size : 403 MiB (74%) Writing library : x264 core 148 r2714 2daf636 Encoding settings : cabac=1 / ref=3 / deblock=1:0:0 / analyse=0x1:0x111 / me=umh / subme=10 / psy=1 / psy_rd=1.00:0.00 / mixed_ref=1 / me_range=24 / chroma_me=1 / trellis=2 / 8x8dct=0 / cqm=0 / deadzone=21,11 / fast_pskip=1 / chroma_qp_offset=-2 / threads=8 / lookahead_threads=1 / sliced_threads=0 / nr=0 / decimate=1 / interlaced=0 / bluray_compat=0 / stitchable=1 / constrained_intra=0 / bframes=2 / b_pyramid=0 / b_adapt=2 / b_bias=0 / direct=3 / weightb=1 / open_gop=0 / weightp=2 / keyint=48 / keyint_min=25 / scenecut=0 / intra_refresh=0 / rc_lookahead=48 / rc=2pass / mbtree=1 / bitrate=2490 / ratetol=1.0 / qcomp=0.50 / qpmin=6 / qpmax=51 / qpstep=4 / cplxblur=20.0 / qblur=0.5 / vbv_maxrate=3735 / vbv_bufsize=4980 / nal_hrd=vbr / filler=0 / ip_ratio=1.40 / aq=1:1.00 Language : English Default : No Forced : No Audio #2 ID : 2 Format : AC-3 Format/Info : Audio Coding 3 Mode extension : CM (complete main) Format settings, Endianness : Big Codec ID : A_AC3 Duration : 23mn 15s Bit rate mode : Constant Bit rate : 384 Kbps Channel(s) : 6 channels Channel positions : Front: L C R, Side: L R, LFE Sampling rate : 48.0 KHz Bit depth : 16 bits Compression mode : Lossy Stream size : 63.9 MiB (12%) Language : Russian Default : Yes Forced : No Audio #3 ID : 3 Format : AC-3 Format/Info : Audio Coding 3 Mode extension : CM (complete main) Format settings, Endianness : Big Codec ID : A_AC3 Duration : 23mn 15s Bit rate mode : Constant Bit rate : 384 Kbps Channel(s) : 6 channels Channel positions : Front: L C R, Side: L R, LFE Sampling rate : 48.0 KHz Bit depth : 16 bits Compression mode : Lossy Stream size : 63.9 MiB (12%) Language : English Default : No Forced : No Text #4 ID : 4 Format : UTF-8 Codec ID : S_TEXT/UTF8 Codec ID/Info : UTF-8 Plain Text Language : English Default : No Forced : No
Предыдущие и альтернативные раздачи

Трекер:  [ 20-Май-2018 23:54 ]

  

Скачать .torrent

Размер .torrent файла 23 KB


Размер: 8.65 GB
Хэш (hash) релиза: 99a3e499f0f95a5148874c0f84a221dc5bf5013e
Подписка на обновления:

Еще никто не оставлял запись к записи скачать торрент Босс-молокосос: Снова в деле The Boss Baby: Back in Business . Будь первым!

!Обратная связь