Patient Zero 2018 Movies HDRip x264 AAC with Sample ☻rDX☻ | Medalist Lawyer Heir | Le.Plus.Gr4nd.Cabaret.du.Monde.Episode.07.09.13.HDTVRip.(1080p)

Скачать через торрент Человек-Паук 196 Spider-Man 1967 Фильм бесплатно в хорошем качестве torrent

Скачивайте на UnionPeer.org фильмы через торрент без регистрации. Новинки кино в хорошем качестве через торрент. На UnionPeer.org можно скачать через торрент фильмы 2014 и 2015 годов. Самые новые фильмы.

Скачать торрент Человек-Паук 196 Spider-Man 1967 бесплатно через .torrent фильм мультфильм сериал

Статистика раздачи
Размер:  40.62 GB   |    Зарегистрирован:  3 месяца 3 дня   |    .torrent скачан:  31 раз   |   
Раздают:  1  
   
загрузка...
 
Автор Сообщение

Galfimbul

avatar Galfimbul



Человек паук 1967 / Spider-Man 1967
The Complete Series

Год выпуска: 1967-1970
Страна: США
Жанр: Экшен, приключения
Продолжительность: 10 или 20 мин.
Режиссёр: Грант Симонс /Grant Simmons/, Клайд Джероними /Clyde Geronimi/, Сид Маркус /Sid Marcus/
Роли озвучивали: Питер Паркер / Человек-паук — Дмитрий Филимонов
Доктор Осьминог, Мистерио, Стервятник — Борис Токарев
Джей Джона Джеймсон, Доктор Курт Коннорс / Ящер — Юрий Маляров
Тётя Мэй — Нина Лунёва
Бетти Брант — Ольга ЗвереваОписание:
«Человек-паук» — американский мультипликационный сериал об одноимённом персонаже, транслировался с 9 сентября 1967 года по 14 июня 1970 года по каналу ABC. В его создании участвовали канадские актёры-дублёры и американские мультипликаторы. За основу сюжета была взята серия комиксов «Amazing Spider-Man», созданная писателем Стэном Ли и художником Стивом Дитко. В эфир вышло 52 эпизода телешоу, поделённых на 3 сезона. Первый сезон был создан студией «Grantray-Lawrence Animation», а второй и третий сезоны — продюсером Ральфом Бакши.

В России транслировался на телеканале СТС с 16 апреля по 1 июля 2008 года по будням в 6:00.
Аудиодорожка 01: MP3 | 48khz | 2ch | 110kb/s |Профессиональный (многоголосный, закадровый): | СТС | Серии 01-52
Аудиодорожка 02: AC3 | 48khz | 2ch | 192kb/s |Авторский (одноголосый закадровый): | Алексей Михалёв | Cерии 1a, 1b, 2a, 2b, 4a
Аудиодорожка 03: AC3 | 48khz | 2ch | 192kb/s |Авторский (одноголосый закадровый): | Василий Горчаков | Cерии 3, 4b, 5
Аудиодорожка 04: AC3 | 48khz | 2ch | 192kb/s |Авторский (одноголосый закадровый): | Леонид Володарский | Cерии 1а, 2b, 3a, 3b, 4a, 4b, 5
Субтитры : Idx-Sub | Оригинал | English | 1-52

Качество: DVD-Remux
Формат: MKV
Видео кодек: MPEG2
Аудио кодек: AC3 / MP3
Видео: MPEG-2 Video | NTSC | 4:3 | 720x480 | 29.970 fps | ~4915/9800 Kbps/
Сезон 1
1a The Power of Dr. Octopus
1b Sub-Zero for Spidey
2a Where Crawls the Lizard
2b Electro, the Human Lightning Bolt
3 The Menace of Mysterio
4a The Sky is Falling
4b Captured by J. Jonah Jameson
5a Never Step on a Scorpion
5b Sands of Crime
6a Diet of Destruction
6b The Witching Hour
7a Kilowatt Kaper
7b The Peril of Parafino
8 Horn of the Rhino
9a The One-Eyed Idol
9b Fifth Avenue Phantom
10a The Revenge of Dr. Magneto
10b The Sinister Prime Minister
11a The Night of the Villains
11b Here Comes Trubble
12a Spider-Man Meets Dr. Noah Boddy
12b The Fantastic Fakir
13a Return of the Flying Dutchman
13b Farewell Performance
14a The Golden Rhino
14b Blueprint for Crime
15a The Spider and the Fly
15b The Slippery Dr. Von Schlick
16a The Vulture's Prey
16b The Dark Terrors
17a The Terrible Triumph of Dr. Octopus
17b Magic Malice
18a Fountain of Terror
18b Fiddler on the Loose
19a To Catch a Spider
19b Double Identity
20a Sting of the Scorpion
20b Trick or Treachery

40a The Winged Thing
40b Conner's Reptiles
41a Trouble with Snow
41b Spider-Man vs. Desperado
42a Sky Harbor
42b The Big Brainwasher
43a The Vanishing Dr. Vespasian
43b Scourge of the Scarf
44a Super Swami
44b The Birth of Micro-Man
45a Knight Must Fall
45b The Devious Dr. Dumpty
46 Up from Nowhere
47 Rollarama
48a Rhino
48b The Madness of Mysterio
49 Revolt in the Fifth Dimension
50 Specialists and Slaves
51 Down to Earth
52 Trip to Tomorrow
ОбщееУникальный идентификатор : 46166431803232775468784405378798047487 (0x22BB54D2EE11AA4C617DF81F9459D0FF)Полное имя : E:\Ремуксы\[AORE] Spider-Man (1967-1970)\Season 1\1a. The Power of Dr. Octopus.mkvФормат : MatroskaВерсия формата : Version 4 / Version 2Размер файла : 436 МбайтПродолжительность : 10 м. 52 с.Режим общего битрейта : ПеременныйОбщий поток : 5608 Кбит/секДата кодирования : UTC 2018-05-16 11:12:23Программа кодирования : mkvmerge v22.0.0 ('At The End Of The World') 64-bitБиблиотека кодирования : libebml v1.3.5 + libmatroska v1.4.8

ВидеоИдентификатор : 5Формат : MPEG VideoВерсия формата : Version 2Профиль формата : [email protected]Настройки формата : CustomMatrix / BVOPПараметр BVOP формата : ДаПараметр матрицы формата : ВыборочнаяПараметр GOP формата : VariableИдентификатор кодека : V_MPEG2Идентификатор кодека/Информация : MPEG 1 or 2 VideoПродолжительность : 10 м. 52 с.Вид битрейта : ПеременныйБитрейт : 4915 Кбит/секМаксимальный битрейт : 9800 Кбит/секШирина : 720 пикселейВысота : 480 пикселейСоотношение сторон : 4:3Режим частоты кадров : ПеременныйЧастота кадров : 24,000 кадра/секЧастота кадров в оригинале : 29,970 (30000/1001) кадров/секЦветовое пространство : YUVСубдискретизация насыщенности : 4:2:0Битовая глубина : 8 битТип развёртки : ПрогрессивнаяМетод сжатия : С потерямиБит/(Пиксели*Кадры) : 0.593Временной код первого кадра : 00:59:59;00Оригинал временного кода : Group of pictures headerGOP, открыто/закрыто : ОткрытоGOP, открыто/закрыто на первом кадре : ЗакрытоРазмер потока : 382 Мбайт (88%)Default : ДаForced : Нет

Аудио #1Идентификатор : 1Формат : MPEG AudioВерсия формата : Version 1Профиль формата : Layer 3Настройки формата : Joint stereo / MS StereoИдентификатор кодека : A_MPEG/L3Идентификатор кодека/Подсказка : MP3Продолжительность : 10 м. 51 с.Вид битрейта : ПеременныйБитрейт : 110 Кбит/секНоминальный битрейт : 128 Кбит/секКаналы : 2 каналаЧастота : 48,0 КГцЧастота кадров : 41,667 кадра/сек (1152 SPF)Метод сжатия : С потерямиРазмер потока : 8,54 Мбайт (2%)Заголовок : СТСБиблиотека кодирования : LAME3.98aНастройки программы : -m j -V 4 -q 2 -lowpass 17 --abr 128Язык : RussianDefault : ДаForced : Нет

Аудио #2Идентификатор : 2Формат : AC-3Формат/Информация : Audio Coding 3Идентификатор кодека : A_AC3Продолжительность : 10 м. 52 с.Вид битрейта : ПостоянныйБитрейт : 192 Кбит/секКаналы : 2 каналаРасположение каналов : Front: L RЧастота : 48,0 КГцЧастота кадров : 31,250 кадров/сек (1536 SPF)Битовая глубина : 16 битМетод сжатия : С потерямиРазмер потока : 14,9 Мбайт (3%)Заголовок : МихалевЯзык : RussianServiceKind/String : Complete MainDefault : НетForced : Нет

Аудио #3Идентификатор : 3Формат : AC-3Формат/Информация : Audio Coding 3Идентификатор кодека : A_AC3Продолжительность : 10 м. 52 с.Вид битрейта : ПостоянныйБитрейт : 192 Кбит/секКаналы : 2 каналаРасположение каналов : Front: L RЧастота : 48,0 КГцЧастота кадров : 31,250 кадров/сек (1536 SPF)Битовая глубина : 16 битМетод сжатия : С потерямиРазмер потока : 14,9 Мбайт (3%)Заголовок : ВолодарскийЯзык : RussianServiceKind/String : Complete MainDefault : НетForced : Нет

Аудио #4Идентификатор : 4Формат : AC-3Формат/Информация : Audio Coding 3Идентификатор кодека : A_AC3Продолжительность : 10 м. 52 с.Вид битрейта : ПостоянныйБитрейт : 192 Кбит/секКаналы : 2 каналаРасположение каналов : Front: L RЧастота : 48,0 КГцЧастота кадров : 31,250 кадров/сек (1536 SPF)Битовая глубина : 16 битМетод сжатия : С потерямиРазмер потока : 14,9 Мбайт (3%)Язык : EnglishServiceKind/String : Complete MainDefault : НетForced : Нет

ТекстИдентификатор : 6Формат : VobSubРежим смешивания : zlibИдентификатор кодека : S_VOBSUBИдентификатор кодека/Информация : Picture based subtitle format used on DVDsПродолжительность : 10 м. 34 с.Битрейт : 6747 бит/секElementCount : 192Размер потока : 523 Кбайт (0%)Язык : EnglishDefault : ДаForced : Нет
Сэмпл


[b]Информация о проекте:
Проект задумывался с целью собрать сериал в отличном качестве, в наиболее удобном контейнере MKV с сохранением качества, без малейшего пережатия и наполнением его разнообразными переводами. За основу были взяты оригинальные диски, скачанные с одного трекера. Каждую серию доставал с помощью PgcDemux. Многоголосый перевод уже был синхронизирован. Авторские переводы синхронизировались с помощью Sony Vegas БЕЗ сохранения тона.
За создание одного из лучших супергероев: <img class="smile" src="//static.t-ru.org/smiles/tr_respect.gif" alt="">Стэн Ли <img class="smile" src="//static.t-ru.org/smiles/tr_respect.gif" alt="">
За диски: <img class="smile" src="//static.t-ru.org/smiles/tr_respect.gif" alt=""> Walt Disney Studios <img class="smile" src="//static.t-ru.org/smiles/tr_respect.gif" alt="">
За раздачу со всеми сериями в многоголосом переводе: <img class="smile" src="//static.t-ru.org/smiles/tr_respect.gif" alt="">meatmanpsix <img class="smile" src="//static.t-ru.org/smiles/tr_respect.gif" alt="">
За дорожки Алексея Михалева и Василия Горчакова: <img class="smile" src="//static.t-ru.org/smiles/tr_respect.gif" alt="">lex2085 <img class="smile" src="//static.t-ru.org/smiles/tr_respect.gif" alt="">
За дорожки Леонида Володарского: <img class="smile" src="//static.t-ru.org/smiles/tr_respect.gif" alt="">multmir <img class="smile" src="//static.t-ru.org/smiles/tr_respect.gif" alt="">
За шаблон: <img class="smile" src="//static.t-ru.org/smiles/tr_respect.gif" alt="">RoxMarty <img class="smile" src="//static.t-ru.org/smiles/tr_respect.gif" alt="">

Предыдущие и альтернативные раздачи

Трекер:  [ 18-Май-2018 11:24 ]

  

Скачать .torrent

Размер .torrent файла 208 KB


Размер: 40.62 GB
Хэш (hash) релиза: 9bd6e0075bba327c3c366ad289db19a6ae367c6c
Подписка на обновления:

Еще никто не оставлял запись к записи скачать торрент Человек-Паук 196 Spider-Man 1967 . Будь первым!

!Обратная связь