Yagate Kimi ni Naru | Medical Microbiology 8th Edition c2016 Murray txtbk | Shirobako

Скачать через торрент [Nickelodeon] Черепашки Ниндзя Teenage Mutant Ninja Turtles Фильм бесплатно в хорошем качестве torrent

Скачивайте на UnionPeer.org фильмы через торрент без регистрации. Новинки кино в хорошем качестве через торрент. На UnionPeer.org можно скачать через торрент фильмы 2014 и 2015 годов. Самые новые фильмы.

Скачать торрент [Nickelodeon] Черепашки Ниндзя Teenage Mutant Ninja Turtles бесплатно через .torrent фильм мультфильм сериал

Статистика раздачи
Размер:  18.69 GB   |    Зарегистрирован:  5 месяцев 5 дней   |    .torrent скачан:  31 раз   |   
Раздают:  1  
   
загрузка...
 
Автор Сообщение

Galfimbul

avatar Galfimbul


Черепашки Ниндзя. Сезон 2
Teenage Mutant Ninja Turtles. Season 2
Страна: США
Студия: Nickelodeon
Жанр: приключения, фантастика, комедия
Продолжительность серии: ~00:24:00
Год выпуска: 2013
Перевод: Профессиональный (дублированный)
Перевод 2: Профессиональный (многоголосый закадровый)
Перевод 3: Отсутствует
Русские субтитры: нет

Режиссёр: Хуан Хосе Меса-Леон, Алан Ван, Майкл Чанг
Роли озвучивали: Шон Эстин, Джейсон Биггз, Грег Сайпс, Роб Полсен, Хун Ли, Мэй Уитман, Нолан Норт, Кевин Майкл Ричардсон, Клэнси Браун, Брайан Блум

Описание: Однажды иммигрант из Японии Хамато Йоши купил себе домашних питомцев — четырех черепашек. Но под воздействием мутагена Йоши превратился в полукрысу-получеловека Сплинтера, а черепашки выросли до огромных размеров и обрели человеческие черты и качества. Под землей, в трубах коллектора, Сплинтер вырастил их как собственных сыновей, обучив дисциплине, философии и боевым искусствам — всему тому, что поможет выжить.
И вот, пятнадцать лет спустя, Черепашки-ниндзя готовы бросить вызов улицам Нью-Йорка, враждебным и полным опасностей! Противники могут быть куда более угрожающими, чем кажутся, а пицца — еще вкуснее, чем ты можешь себе представить… убедись в этом вместе с героями-черепашками Леонардо, Донателло, Рафаэлем и Микеланджело!

Качество видео: WEB-DL 720p
Формат файла: mkv
Видео: кодек: AVC, размер кадра: 1280x718 (16:9), битрейт: ~4000 кб/с, частота кадров: ~24 кадра/сек
Аудио №1: язык: русский, дублированный (SDI Media Nickelodeon), частота дискретизации: 48 КГц, аудиокодек: AC3, 2 ch, битрейт аудио: 192 кб/с
Аудио №2: язык: русский, многоголосый закадровый (ZM-SHOW), частота дискретизации: 48 КГц, аудиокодек: AC3, 2 ch, битрейт аудио: 192 кб/с
Аудио №3: язык: английский (оригинал), частота дискретизации: 48 КГц, аудиокодек: AAC, 2 ch, битрейт аудио: 192 кб/с
<div style="margin-left: 2em" class="post-ul">01. Новые Мутации / The Mutation Situation
02. Нашествие Белканоидов / Invasion Of The Squirrelanoids
03. Следуй За Лидером / Follow the Leader
04. Мутагеноид На Свободе / Mutagen Man Unleashed
05. Микки В Прыщах / Mikey Gets Shellacne
06. Цель: Эйприл О'Нил / Target: April O'Neil
07. Круши и Ломай / Slash And Destroy
08. Хороший, Плохой И Кейси Джонс / The Good, The Bad And Casey Jones
09. Заговор Кренгов / The Kraang Conspiracy
10. Гриб-Гигант / Fungus Humungous
11. Апгрейд Железной головы / Metalhead Rewired
12. О крысах и людях / Of Rats And Men
13-14. Черветрясение / Wormquake
15. Лабиринты И Мутанты / Mazes & Mutants
16. Одинокая Мутация Бакстера Стокмана / The Lonely Mutation Of Baxter Stockman
17. Тритерминированный / Newtralized
18. Пиццаликий / Pizza Face
19. Гнев Тигриного Когтя / The Wrath Of Tiger Claw
20. Легенда О Куро Кабуто / The Legend Of The Kuro Kabuto
21. План 10 / Plan 10
22. Месть / Vengeance is Mine
23. История о Призраке Китайского Города / A Chinatown Ghost Story
24. В Измерение Икс / Into Dimension X
25-26. Вторжение / Invasion
</div>
ОбщееУникальный идентификатор : 188763725578164872710204156561293494493 (0x8E029236EB720999B93DB04456CEC8DD)Полное имя : \TMNT Season 2\Teenage.Mutant.Ninja.Turtles.s02e01.DUB+MVO+ENG.720p.mkvФормат : MatroskaВерсия формата : Version 4 / Version 2Размер файла : 740 МбайтПродолжительность : 22 м. 43 с.Общий поток : 4553 Кбит/секНазвание фильма : LE-ProductionДата кодирования : UTC 2014-03-06 23:04:54Программа кодирования : mkvmerge v6.8.0 ('Theme for Great Cities') 32bit built on Mar 2 2014 21:27:07Библиотека кодирования : libebml v1.3.0 + libmatroska v1.4.1

ВидеоИдентификатор : 1Формат : AVCФормат/Информация : Advanced Video CodecПрофиль формата : [email protected]Настройки формата : 2 Ref FramesПараметр CABAC формата : НетПараметр RefFrames формата : 2 кадраИдентификатор кодека : V_MPEG4/ISO/AVCПродолжительность : 22 м. 43 с.Ширина : 1280 пикселейВысота : 718 пикселейСоотношение сторон : 16:9Режим частоты кадров : ПостоянныйЧастота кадров : 23,976 (24000/1001) кадра/секЦветовое пространство : YUVСубдискретизация насыщенности : 4:2:0Битовая глубина : 8 битТип развёртки : ПрогрессивнаяЗаголовок : ZM-SHOWЯзык : RussianDefault : НетForced : НетЦветовой диапазон : LimitedОсновные цвета : BT.709Характеристики трансфера : BT.709Коэффициенты матрицы : BT.709

Аудио #1Идентификатор : 2Формат : AC-3Формат/Информация : Audio Coding 3Идентификатор кодека : A_AC3Продолжительность : 22 м. 43 с.Вид битрейта : ПостоянныйБитрейт : 192 Кбит/секКаналы : 2 каналаРасположение каналов : Front: L RЧастота : 48,0 КГцЧастота кадров : 31,250 кадров/сек (1536 SPF)Битовая глубина : 16 битМетод сжатия : С потерямиРазмер потока : 31,2 Мбайт (4%)Заголовок : NickelodeonЯзык : RussianServiceKind/String : Complete MainDefault : ДаForced : Нет

Аудио #2Идентификатор : 3Формат : AC-3Формат/Информация : Audio Coding 3Идентификатор кодека : A_AC3Продолжительность : 22 м. 43 с.Вид битрейта : ПостоянныйБитрейт : 192 Кбит/секКаналы : 2 каналаРасположение каналов : Front: L RЧастота : 48,0 КГцЧастота кадров : 31,250 кадров/сек (1536 SPF)Битовая глубина : 16 битМетод сжатия : С потерямиРазмер потока : 31,2 Мбайт (4%)Заголовок : ZM-SHOWЯзык : RussianServiceKind/String : Complete MainDefault : НетForced : Нет

Аудио #3Идентификатор : 4Формат : AACФормат/Информация : Advanced Audio CodecПрофиль формата : LCИдентификатор кодека : A_AAC-2Продолжительность : 22 м. 43 с.Каналы : 2 каналаРасположение каналов : Front: L RЧастота : 48,0 КГцЧастота кадров : 46,875 кадров/сек (1024 SPF)Метод сжатия : С потерямиЗаголовок : OriginalЯзык : EnglishDefault : НетForced : Нет
<img class="smile" src="//static.t-ru.org/smiles/icon_arrow.gif" alt=""> [Nickelodeon] Черепашки Ниндзя / Сезон: 1 (1-26) [WEB-DL 720p] Dub+MVO+ENG
<img class="smile" src="//static.t-ru.org/smiles/icon_arrow.gif" alt=""> Предыдущие и альтернативные раздачи

Трекер:  [ 12-Май-2018 11:24 ]

  

Скачать .torrent

Размер .torrent файла 49 KB


Размер: 18.69 GB
Хэш (hash) релиза: 9840e2ad4e7fea39d588c1bfcbde18b20ff47fd1
Подписка на обновления:

Еще никто не оставлял запись к записи скачать торрент [Nickelodeon] Черепашки Ниндзя Teenage Mutant Ninja Turtles . Будь первым!

!Обратная связь