Gundam Build Fighters Try | Thám Tử Lừng Danh Conan chap 995 | Introduce yourself

Скачать через торрент LEGO Ниндзяго: Мастера Кружитцу LEGO Ninjago: Masters of Spinjitzu Фильм бесплатно в хорошем качестве torrent

Скачивайте на UnionPeer.org фильмы через торрент без регистрации. Новинки кино в хорошем качестве через торрент. На UnionPeer.org можно скачать через торрент фильмы 2014 и 2015 годов. Самые новые фильмы.

Скачать торрент LEGO Ниндзяго: Мастера Кружитцу LEGO Ninjago: Masters of Spinjitzu бесплатно через .torrent фильм мультфильм сериал

Статистика раздачи
Размер:  7.3 GB   |    Зарегистрирован:  5 месяцев 6 дней   |    .torrent скачан:  40 раз   |   
Раздают:  1  
   
загрузка...
 
Автор Сообщение

Galfimbul

avatar Galfimbul


LEGO Ниндзяго: Мастера Кружитцу / LEGO Ninjago: Masters of Spinjitzu

Страна: Дания, Сингапур, Канада, США
Жанр: Приключения, Фэнтези
Продолжительность серии: 00:22:50
Год выпуска: 2018
Перевод: Профессиональный (дублированный)
Русские субтитры: нет

Режиссёр: Питер Хауснер, Мартин Скоу / Peter Hausner, Martin Skov
Роли озвучивали: Винсент Тонг, Джиллиан Майклс, Джон Новак, Йен Джеймс Корлетт, Пол Добсон, Майкл Адамуэйт, Келли Мецгер, Брент Миллер, Кирби Морроу, Брайан Драммонд

Описание: Спустя год после потери Мастера Ву в битве с Руками Времени, в Нью-Ниндзяго сити появляется преступная организация «Сыновья Гармадона», которые хотят возродить Лорда Гармадона с помощью Они-Масок. Ниндзя, во главе с недавно получившим звание Мастера, Ллойдом, не теряют надежду найти своего Мастера, но у них появляется новая цель — защитить Королевскую Семью и остановить группу байкеров, которые известные как Сыновья Гармадона, чтобы они не возродили Лорда Гармадона.

Список серий:
01 The Mask of Deception
02 The Jade Princess
03 The Oni and the Dragon
04 Snake Jaguar
05 Dead Mans Squall
06 The Quiet One
07 Game of Masks
08 Dread on Arrival
09 True Potential
10 Big Trouble Little Ninjago

Качество: WEBRip
Формат: MKV
Видео: AVC, 1920x1080 (16:9), 29.97 fps, ~4500 Kbps
Аудио: AC3, 48 kHz, 2 channels, 192 kbps, rus
Аудио 2: AAC, 44.1 kHz, 2 channels, 126 kbps, eng
Субтитры: английские
GeneralUnique ID : 256343650158826762181719175242500280987 (0xC0D9FDBE975959E58BAFED8DC870129B)Format : MatroskaFormat version : Version 4 / Version 2File size : 746 MiBDuration : 22 min 2 sOverall bit rate : 4 731 kb/sMovie name : LEGO NinjaGo: Masters of Spinjitzu S08E05 - Dead Man's Squall [SHDW, Mark SHaDoW]Encoded date : UTC 2018-05-04 14:48:57Writing application : mkvmerge v22.0.0 ('At The End Of The World') 64-bitWriting library : libebml v1.3.5 + libmatroska v1.4.8

VideoID : 1Format : AVCFormat/Info : Advanced Video CodecFormat profile : [email protected] settings, CABAC : YesFormat settings, ReFrames : 4 framesFormat settings, GOP : M=3, N=60Codec ID : V_MPEG4/ISO/AVCDuration : 22 min 2 sBit rate : 4 500 kb/sWidth : 1 920 pixelsHeight : 1 080 pixelsDisplay aspect ratio : 16:9Frame rate mode : ConstantFrame rate : 29.970 (30000/1001) FPSOriginal frame rate : 29.970 (29970/1000) FPSColor space : YUVChroma subsampling : 4:2:0Bit depth : 8 bitsScan type : ProgressiveBits/(Pixel*Frame) : 0.072Stream size : 695 MiB (93%)Writing library : x264 core 148Encoding settings : cabac=1 / ref=1 / deblock=1:0:0 / analyse=0x3:0x113 / me=hex / subme=2 / psy=1 / psy_rd=1.00:0.00 / mixed_ref=0 / me_range=16 / chroma_me=1 / trellis=0 / 8x8dct=1 / cqm=0 / deadzone=21,11 / fast_pskip=1 / chroma_qp_offset=0 / threads=34 / lookahead_threads=8 / sliced_threads=0 / nr=0 / decimate=1 / interlaced=0 / bluray_compat=0 / constrained_intra=0 / bframes=2 / b_pyramid=2 / b_adapt=0 / b_bias=0 / direct=1 / weightb=1 / open_gop=0 / weightp=1 / keyint=60 / keyint_min=6 / scenecut=0 / intra_refresh=0 / rc_lookahead=10 / rc=2pass / mbtree=1 / bitrate=4500 / ratetol=1.0 / qcomp=0.60 / qpmin=0 / qpmax=69 / qpstep=4 / cplxblur=20.0 / qblur=0.5 / vbv_maxrate=4500 / vbv_bufsize=4500 / nal_hrd=none / filler=0 / ip_ratio=1.40 / aq=1:1.00Language : EnglishDefault : YesForced : No

Audio #1ID : 2Format : AC-3Format/Info : Audio Coding 3Mode extension : CM (complete main)Format settings, Endianness : BigCodec ID : A_AC3Duration : 22 min 2 sBit rate mode : ConstantBit rate : 192 kb/sChannel(s) : 2 channelsChannel positions : Front: L RSampling rate : 48.0 kHzFrame rate : 31.250 FPS (1536 spf)Bit depth : 16 bitsCompression mode : LossyStream size : 30.3 MiB (4%)Language : RussianDefault : YesForced : No

Audio #2ID : 3Format : AACFormat/Info : Advanced Audio CodecFormat profile : LCCodec ID : A_AACDuration : 22 min 2 sBit rate : 126 kb/sChannel(s) : 2 channelsChannel positions : Front: L RSampling rate : 44.1 kHzFrame rate : 43.066 FPS (1024 spf)Compression mode : LossyStream size : 19.8 MiB (3%)Language : EnglishDefault : NoForced : No

TextID : 4Format : UTF-8Codec ID : S_TEXT/UTF8Codec ID/Info : UTF-8 Plain TextDuration : 21 min 36 sBit rate : 84 b/sCount of elements : 337Stream size : 13.4 KiB (0%)Language : EnglishDefault : YesForced : No
Предыдущие и альтернативные раздачи

Трекер:  [ 11-Май-2018 16:54 ]

  

Скачать .torrent

Размер .torrent файла 38 KB


Размер: 7.3 GB
Хэш (hash) релиза: a0e92ec3629723af349281b27c572c2e20887c78
Подписка на обновления:

Еще никто не оставлял запись к записи скачать торрент LEGO Ниндзяго: Мастера Кружитцу LEGO Ninjago: Masters of Spinjitzu . Будь первым!

!Обратная связь