The Smurfs 2 (2013) | David Cronenberg | Voir la suite

Скачать через торрент Вакфу: В поисках шести дофусов Wakfu OVA: La Quête des Six Dofus Eliatropes Фильм бесплатно в хорошем качестве torrent

Скачивайте на UnionPeer.org фильмы через торрент без регистрации. Новинки кино в хорошем качестве через торрент. На UnionPeer.org можно скачать через торрент фильмы 2014 и 2015 годов. Самые новые фильмы.

Скачать торрент Вакфу: В поисках шести дофусов Wakfu OVA: La Quête des Six Dofus Eliatropes бесплатно через .torrent фильм мультфильм сериал

Статистика раздачи
Размер:  8.49 GB   |    Зарегистрирован:  1 месяц 14 дней   |    .torrent скачан:  22 раза   |   
Раздают:  1  
   
загрузка...
 
Автор Сообщение

Galfimbul

avatar Galfimbul



Вакфу: В поисках шести дофусов / Wakfu: La Quête des Six Dofus Eliatropes
OVA
Год выпуска: 2014
Страна: Франция.
Жанр: Комедия, приключение, фэнтези.
Продолжительность: ОВА (3 эп.), ~ 45 минут
Перевод: Профессиональный (Полное Дублирование) Мультимания
Субтитры: Есть

Режиссёр: Тот, Оливье Тулье / Tot, Olivier "Guss" Thulliez

Описание: Прошло шесть лет с тех пор, как наши герои спасли Мир Двенадцати от Килби. Казалось бы, вот она, спокойная и мирная жизнь. Но вот увы, реальность совсем не оправдывает ожиданий. Алхимик Отомай приносит Юго и Адамаю на своих крыльях весть о том, что принцессе Амалии срочно требуется помощь Братства Тофу. Неужели Миру Двенадцати снова грозит опасность?
Релиз от:
Над релизом работали:
Выражаю огромнейшую благодарность следующим лицам:
SergeZuich - Предоставил BDRip'ы.
7ion - Создание субтитров
Jakill - Ранняя работа над мультсериалом
-Azureus- - Предоставил дорожки Мультимании
ALEKS KV - Сведение, итоговый муксинг

Сэмпл
Доп. Информация:
За основу видео взяты американские BDRip'ы, как самые лучшие по качеству видео и звука!

<div class="sp-wrap">
<div class="sp-head folded">Пример локализации</div>
<div class="sp-body"> </div>
</div>
[b]Качество
: BDRip 1080p
Видео: x264 8bit 1920x1080 25.000fps ~7100Kbps
Аудио:

русская: Dolby AC3 48000Hz -----|Stereo|----- 192Kbps [Мультимания] (Серии 01-03)
французская: DTS 48000Hz --------|5.1|------- 1509Kbps [Оригинал] (Серии 01-03)

Субтитры:

русские: 7ion (Серии 01-03)
английские: Suricatessen (Серии 01-03)
01. Ледяной трон
02. Эш
03. Гора Драконов
GeneralUnique ID : 221200277356134073462599786450100448820 (0xA6699FB07C1A9993926D9C69F36C6E34)Complete name : XXXXXXXXXXXX\[M-KV2501] Wakfu OVA. Book 01 The Throne of Ice [BDRip] [1080p].mkvFormat : MatroskaFormat version : Version 4 / Version 2File size : 2.76 GiBDuration : 45 min 11 sOverall bit rate : 8 754 kb/sEncoded date : UTC 2018-05-08 13:29:39Writing application : mkvmerge v8.3.0 ('Over the Horizon') 64bitWriting library : libebml v1.3.1 + libmatroska v1.4.2Attachments : HARNGTON.TTF

VideoID : 1Format : AVCFormat/Info : Advanced Video CodecFormat profile : [email protected] settings : CABAC / 4 Ref FramesFormat settings, CABAC : YesFormat settings, ReFrames : 4 framesCodec ID : V_MPEG4/ISO/AVCDuration : 45 min 11 sBit rate : 7 050 kb/sWidth : 1 920 pixelsHeight : 1 080 pixelsDisplay aspect ratio : 16:9Frame rate mode : ConstantFrame rate : 25.000 FPSColor space : YUVChroma subsampling : 4:2:0Bit depth : 8 bitsScan type : ProgressiveBits/(Pixel*Frame) : 0.136Stream size : 2.22 GiB (81%)Title : LocalizationWriting library : x264 core 148 r2638+53 bb29004 t_mod_Custom [[email protected] X86_64]Encoding settings : cabac=1 / ref=4 / deblock=1:-2:-2 / analyse=0x3:0x133 / me=umh / subme=11 / psy=1 / fade_compensate=0.00 / psy_rd=1.05:0.00 / mixed_ref=1 / me_range=32 / chroma_me=1 / trellis=2 / 8x8dct=1 / cqm=0 / deadzone=21,11 / fast_pskip=0 / chroma_qp_offset=-2 / threads=6 / lookahead_threads=1 / sliced_threads=0 / nr=0 / decimate=0 / interlaced=0 / bluray_compat=0 / constrained_intra=0 / fgo=0 / bframes=12 / b_pyramid=2 / b_adapt=2 / b_bias=0 / direct=3 / weightb=1 / open_gop=0 / weightp=2 / keyint=240 / keyint_min=23 / scenecut=40 / intra_refresh=0 / rc_lookahead=240 / rc=crf / mbtree=1 / crf=15.9000 / qcomp=0.73 / qpmin=0:0:0 / qpmax=69:69:69 / qpstep=4 / vbv_maxrate=62500 / vbv_bufsize=78125 / crf_max=0.0 / nal_hrd=none / filler=0 / ip_ratio=1.40 / aq=3:0.88 / aq-sensitivity=10.00 / aq-factor=1.00:1.00:1.00 / aq2=0 / aq3=0 / zones=25,138,crf=13/1662,1915,crf=15/67419,67534,crf=15Language : EnglishDefault : YesForced : No

Audio #1ID : 2Format : AC-3Format/Info : Audio Coding 3Codec ID : A_AC3Duration : 45 min 11 sBit rate mode : ConstantBit rate : 192 kb/sChannel(s) : 2 channelsChannel positions : Front: L RSampling rate : 48.0 kHzFrame rate : 31.250 FPS (1536 SPF)Bit depth : 16 bitsCompression mode : LossyStream size : 62.1 MiB (2%)Title : МультиманияLanguage : RussianService kind : Complete MainDefault : YesForced : No

Audio #2ID : 3Format : DTSFormat/Info : Digital Theater SystemsCodec ID : A_DTSDuration : 45 min 11 sBit rate mode : ConstantBit rate : 1 509 kb/sChannel(s) : 6 channelsChannel positions : Front: L C R, Side: L R, LFESampling rate : 48.0 kHzFrame rate : 93.750 FPS (512 SPF)Bit depth : 24 bitsCompression mode : LossyStream size : 488 MiB (17%)Title : OriginalLanguage : FrenchDefault : NoForced : No

Text #1ID : 4Format : ASSCodec ID : S_TEXT/ASSCodec ID/Info : Advanced Sub Station AlphaDuration : 44 min 10 sBit rate : 142 b/sCount of elements : 465Compression mode : LosslessStream size : 46.0 KiB (0%)Title : 7ionLanguage : RussianDefault : NoForced : No

Text #2ID : 5Format : ASSCodec ID : S_TEXT/ASSCodec ID/Info : Advanced Sub Station AlphaDuration : 44 min 40 sBit rate : 122 b/sCount of elements : 492Compression mode : LosslessStream size : 40.1 KiB (0%)Title : SuricatessenLanguage : EnglishDefault : NoForced : No
Внимание, данная раздача содержит эксклюзивный контент от M-KV2501. Использовать контент без баннера группы: и указания первоначального источника - ЗАПРЕЩЕНО!


Трекер:  [ 08-Май-2018 18:24 ]

  

Скачать .torrent

Размер .torrent файла 43 KB


Размер: 8.49 GB
Хэш (hash) релиза: 1f916128243efe94f8c8e0112554f3bf731c7b96
Подписка на обновления:

Еще никто не оставлял запись к записи скачать торрент Вакфу: В поисках шести дофусов Wakfu OVA: La Quête des Six Dofus Eliatropes . Будь первым!

!Обратная связь