Older Entries | gran bretagna249 | Jewel Match Royale

Скачать через торрент Заправка на углу Corner Gas Фильм бесплатно в хорошем качестве torrent

Скачивайте на UnionPeer.org фильмы через торрент без регистрации. Новинки кино в хорошем качестве через торрент. На UnionPeer.org можно скачать через торрент фильмы 2014 и 2015 годов. Самые новые фильмы.

Скачать торрент Заправка на углу Corner Gas бесплатно через .torrent фильм мультфильм сериал

Статистика раздачи
Размер:  358 MB   |    Зарегистрирован:  5 месяцев 12 дней   |    .torrent скачан:  46 раз   |   
Раздают:  1  
   
загрузка...
 
Автор Сообщение

Galfimbul

avatar Galfimbul


Заправка на углу / Corner Gas

Страна: Канада
Жанр: Комедия
Продолжительность серии: ~23мин
Год выпуска: 2018
Перевод: Любительский (двухголосый закадровый) NewStation
Русские субтитры: нет

Режиссёр: Брент Батт / Brent Butt
Роли озвучивали: Кэтлин Барр, Брент Батт, Лорн Кардинал, Шеннон Чан-Кент, Каван Каннингэм

Описание: Жизнь или отсутствие таковой, владельца единственной на сотни миль в округе заправочной станции, являющейся центром деятельности местных прерий.

Список серий:
0.1 Сух до капельки / Bone Dry

Семпл: http://multi-up.com/1197313
Предыдущие и альтернативные раздачи

Качество: HDTV
Формат: MKV
Видео: AVC, 1280x718, 16:9, 23,976 кадров/сек, ~1280 Кбит/сек
Аудио #1: [RUS] 48 kHz, AC-3, 2ch, ~256 kbps
Аудио #2: [ENG] 48 kHz, AC-3, 6ch, ~384 kbps
Субтитры: отсутствуют
GeneralUnique ID : 158283704814877155571500089679888088417 (0x7714552A978CB39520AA4646717D7D61)Complete name : D:\NewStation\Corner.Gas.Animated.S01.HDTV.720p.NewStation\Corner.Gas.Animated.S01E01.HDTV.720p.NewStation.mkvFormat : MatroskaFormat version : Version 4 / Version 2File size : 358 MiBDuration : 21 min 43 sOverall bit rate : 2 303 kb/sEncoded date : UTC 2018-05-05 19:55:53Writing application : mkvmerge v19.0.0 ('Brave Captain') 64-bitWriting library : libebml v1.3.5 + libmatroska v1.4.8

VideoID : 1Format : AVCFormat/Info : Advanced Video CodecFormat profile : [email protected] settings : CABAC / 5 Ref FramesFormat settings, CABAC : YesFormat settings, RefFrames : 5 framesCodec ID : V_MPEG4/ISO/AVCDuration : 21 min 43 sBit rate : 1 661 kb/sWidth : 1 280 pixelsHeight : 718 pixelsDisplay aspect ratio : 16:9Frame rate mode : ConstantFrame rate : 23.976 (24000/1001) FPSColor space : YUVChroma subsampling : 4:2:0Bit depth : 8 bitsScan type : ProgressiveBits/(Pixel*Frame) : 0.075Stream size : 258 MiB (72%)Writing library : x264 core 155 r2901 7d0ff22Encoding settings : cabac=1 / ref=5 / deblock=1:0:0 / analyse=0x3:0x113 / me=hex / subme=8 / psy=1 / psy_rd=1.00:0.00 / mixed_ref=1 / me_range=16 / chroma_me=1 / trellis=2 / 8x8dct=1 / cqm=0 / deadzone=21,11 / fast_pskip=1 / chroma_qp_offset=-2 / threads=22 / lookahead_threads=3 / sliced_threads=0 / nr=0 / decimate=1 / interlaced=0 / bluray_compat=0 / constrained_intra=0 / bframes=3 / b_pyramid=2 / b_adapt=1 / b_bias=0 / direct=3 / weightb=1 / open_gop=0 / weightp=2 / keyint=250 / keyint_min=23 / scenecut=40 / intra_refresh=0 / rc_lookahead=50 / rc=crf / mbtree=1 / crf=18.0 / qcomp=0.60 / qpmin=0 / qpmax=69 / qpstep=4 / ip_ratio=1.40 / aq=1:1.00Default : YesForced : NoColor range : LimitedMatrix coefficients : BT.709

Audio #1ID : 2Format : AC-3Format/Info : Audio Coding 3Codec ID : A_AC3Duration : 21 min 43 sBit rate mode : ConstantBit rate : 256 kb/sChannel(s) : 2 channelsChannel positions : Front: L RSampling rate : 48.0 kHzFrame rate : 31.250 FPS (1536 SPF)Bit depth : 16 bitsCompression mode : LossyStream size : 39.8 MiB (11%)Title : NewStationLanguage : RussianService kind : Complete MainDefault : YesForced : No

Audio #2ID : 3Format : AC-3Format/Info : Audio Coding 3Codec ID : A_AC3Duration : 21 min 43 sBit rate mode : ConstantBit rate : 384 kb/sChannel(s) : 6 channelsChannel positions : Front: L C R, Side: L R, LFESampling rate : 48.0 kHzFrame rate : 31.250 FPS (1536 SPF)Bit depth : 16 bitsCompression mode : LossyStream size : 59.7 MiB (17%)Title : OriginalService kind : Complete MainDefault : NoForced : No


Трекер:  [ 05-Май-2018 23:54 ]

  

Скачать .torrent

Размер .torrent файла 14 KB


Размер: 358 MB
Хэш (hash) релиза: 1f2b1e13a28a7e5e5e44a794bf3eb0edfd9fef79
Подписка на обновления:

Еще никто не оставлял запись к записи скачать торрент Заправка на углу Corner Gas . Будь первым!

!Обратная связь