Junior March 2012 Brazil | Alan Shearer | Pro7-Frequenz: Alle Daten im Überblick (Satellit digital, DVB-T, online)

Скачать через торрент Спецагент Арчер Archer Фильм бесплатно в хорошем качестве torrent

Скачивайте на UnionPeer.org фильмы через торрент без регистрации. Новинки кино в хорошем качестве через торрент. На UnionPeer.org можно скачать через торрент фильмы 2014 и 2015 годов. Самые новые фильмы.

Скачать торрент Спецагент Арчер Archer бесплатно через .torrent фильм мультфильм сериал

Статистика раздачи
Размер:  713 MB   |    Зарегистрирован:  1 месяц 17 дней   |    .torrent скачан:  43 раза   |   
Раздают:  1  
   
загрузка...
 
Автор Сообщение

Galfimbul

avatar Galfimbul


Спецагент Арчер / Archer

Год выпуска: 2018
Страна: США
Жанр: Боевик, Комеди
Продолжительность: ~00:22:00

Перевод: Профессиональный (двухголосый закадровый) Gears Media
Режиссёр: Адам Рид/Adam Reed
Роли озвучивали: Джон Бенджамин Джордж Ко Крис Парнелл Джуди Грир Джессика Уолтер Эйша Тайлер

Описание: Спецагент Арчер: Дримленд — 8 сезон мультсериала об агенте Арчере, который будет состоять из 8 серий. Он является продолжением сюжетной линии последней серии прошлого сезона, рассказывая нам, что последние 3 месяца Арчер провёл в коме, мысленно перенесясь в нуарную атмосферу воображаемого мира конца сороковых годов под названием Дримленд.

Ссылка на предыдущие и альтернативные раздачи:
Сэмпл:http://multi-up.com/1197186

Качество: WEBRip 720p
Формат: MKV
Видео: AVC, 1280x720, 30.000 fps, ~4 500 Kbps
Аудио1: Russian, AC3, 48 kHz, 2 ch, 384 kbps
Аудио2: English, AAC, 48 kHz, 2 ch, 127 kbps
Субтитры: нет
Реклама: аудио (два раза, в начале и конце, по 12 сек.)
Format : Matroska
Format version : Version 4 / Version 2
File size : 713 MiB
Duration : 19 min 25 s
Overall bit rate : 5 133 kb/s
Encoded date : UTC 2018-05-04 22:20:40
Writing application : mkvmerge v22.0.0 ('At The End Of The World') 64-bit
Writing library : libebml v1.3.5 + libmatroska v1.4.8

Video
ID : 1
Format : AVC
Format/Info : Advanced Video Codec
Format profile : [email protected]
Format settings : CABAC / 2 Ref Frames
Format settings, CABAC : Yes
Format settings, ReFrames : 2 frames
Codec ID : V_MPEG4/ISO/AVC
Duration : 19 min 25 s
Bit rate : 4 619 kb/s
Nominal bit rate : 4 920 kb/s
Width : 1 280 pixels
Height : 720 pixels
Display aspect ratio : 16:9
Frame rate mode : Variable
Frame rate : 30.119 FPS
Original frame rate : 30.000 FPS
Color space : YUV
Chroma subsampling : 4:2:0
Bit depth : 8 bits
Scan type : Progressive
Bits/(Pixel*Frame) : 0.166
Stream size : 642 MiB (90%)
Writing library : x264 core 148 r2579M 73ae2d1
Encoding settings : cabac=1 / ref=2 / deblock=1:0:0 / analyse=0x3:0x113 / me=hex / subme=2 / psy=1 / psy_rd=1.00:0.00 / mixed_ref=0 / me_range=16 / chroma_me=1 / trellis=0 / 8x8dct=1 / cqm=0 / deadzone=21,11 / fast_pskip=1 / chroma_qp_offset=0 / threads=1 / lookahead_threads=1 / sliced_threads=0 / nr=250 / decimate=1 / interlaced=0 / bluray_compat=0 / stitchable=1 / constrained_intra=0 / bframes=0 / weightp=1 / keyint=250 / keyint_min=25 / scenecut=40 / intra_refresh=0 / rc_lookahead=10 / rc=2pass / mbtree=1 / bitrate=4920 / ratetol=1.0 / qcomp=0.60 / qpmin=5 / qpmax=69 / qpstep=4 / cplxblur=20.0 / qblur=0.5 / ip_ratio=1.40 / aq=1:1.00
Language : English
Default : Yes
Forced : No

Audio #1
ID : 2
Format : AC-3
Format/Info : Audio Coding 3
Codec ID : A_AC3
Duration : 19 min 25 s
Bit rate mode : Constant
Bit rate : 384 kb/s
Channel(s) : 2 channels
Channel positions : Front: L R
Sampling rate : 48.0 kHz
Frame rate : 31.250 FPS (1536 SPF)
Bit depth : 16 bits
Compression mode : Lossy
Stream size : 53.4 MiB (7%)
Title : Gears Media
Language : Russian
Service kind : Complete Main
Default : Yes
Forced : Yes

Audio #2
ID : 3
Format : AAC
Format/Info : Advanced Audio Codec
Format profile : HE-AAC / LC
Format settings : Implicit
Codec ID : A_AAC-2
Duration : 19 min 25 s
Bit rate : 127 kb/s
Channel(s) : 2 channels
Channel positions : Front: L R
Sampling rate : 48.0 kHz / 24.0 kHz
Frame rate : 23.438 FPS (1024 SPF)
Compression mode : Lossy
Delay relative to video : 27 ms
Stream size : 17.6 MiB (2%)
Language : English
Default : No
Forced : No
<div class="sp-wrap">
<div class="sp-head folded">Внимание! Раздача ведётся путём добавления новых серий</div>
<div class="sp-body">[b]Внимание! Раздача ведётся путём добавления новых серий; при каждом добавлении создаётся новый торрент. Чтобы начать докачку новой серии, пользователям необходимо сделать следующее:
(1) остановить скачивание,
(2) удалить старый торрент у себя из клиента (старые серии удалять не надо),
(3) скачать новый торрент и запустить его у себя в клиенте вместо старого, при этом указать клиенту путь в старую папку куда и должно происходить скачивание новых серий.

Eсли вы уже удалили старые серии, то предотвратить повторную закачку старых серий можно, отжав галочку в соответствующих местах при запуске нового торрента. По возможности, желательно не удалять старые серии как можно дольше чтобы релизёр не столько продолжал раздавать старые серии, а смог сконцентрироваться на новых.</div>
</div>

Трекер:  [ 05-Май-2018 02:54 ]

  

Скачать .torrent

Размер .torrent файла 14 KB


Размер: 713 MB
Хэш (hash) релиза: 7c831a54be96e56c1e5bf454e3bee61450f1d1e4
Подписка на обновления:

Торренты, похожие на Спецагент Арчер Archer скачать торрент

Форум Название Автор Размер S L Добавлен
Мультсериалы ·· Спецагент Арчер / Archer / Сезон: 9 / Серии: 1-6 из 8 (Адам Рид / Adam Reed) [2018, шпионская комедия, WEB-DL 720p] MVO (Кубик в Кубе & БЯКО Рекордс) + Original + Sub (Rus, Eng) Galfimbul 40565162133.78 GB 0 0 1529171653

20:54

16-Июн-18

Еще никто не оставлял запись к записи скачать торрент Спецагент Арчер Archer . Будь первым!

!Обратная связь