Cloak & Dagger: ... | Carry the Weight | More Details

Скачать через торрент Цитрус Citrus Фильм бесплатно в хорошем качестве torrent

Скачивайте на UnionPeer.org фильмы через торрент без регистрации. Новинки кино в хорошем качестве через торрент. На UnionPeer.org можно скачать через торрент фильмы 2014 и 2015 годов. Самые новые фильмы.

Скачать торрент Цитрус Citrus бесплатно через .torrent фильм мультфильм сериал

Статистика раздачи
Размер:  1.29 GB   |    Зарегистрирован:  2 месяца 26 дней   |    .torrent скачан:  23 раза   |   
Раздают:  1  
   
загрузка...
 
Автор Сообщение

Galfimbul

avatar Galfimbul


Цитрус
Оригинальное название: Citrus
Период трансляции: c 06.01.2018 по 24.03.2018
Страна: Япония
Жанр: драма, романтика, школа, сёдзё-ай
Продолжительность: 12 эп. по 25 мин
Режиссер: Такахаси Такэо
Студия:
Перевод: Субтитры
Переводчик: Ryuji; Редактор: laci
Описание: Красавица и модница Юзу переводится в новую школу, когда её мама снова выходит замуж и они переезжают в дом её нового мужа. Юзу мечтает найти в школе свою первую любовь, но её ждёт жесткое разочарование, когда она понимает, что попала в очень строгую школу для девочек. В первый же день она ссорится с красивой, но холодной главой учсовета Мэй. Вскоре Юзу узнаёт, что Мэй — её новая сводная сестра и они теперь будут жить под одной крышей. Противоположности притягиваются и начинается непростой роман между двумя старшеклассницами.
01. Love Affair!?
02. One`s First Love
03. Sisterly love?
04. love me do!
05. Under lover
06. Out of Love
07. Love or Lie!
08. War of Love
09. love is
10. Winter of Love
11. Love You Only
12. My Love Goes On and On

Качество видео: HDTVRip
Формат: MP4
Видео кодек: H.264
Аудио кодек: AAC
Видео: MPEG4 Video (H264) 480x272 23.976fps 511kbps
Аудио: AAC 48000Hz stereo 129kbps
Format : MPEG-4
Format profile : Base Media
Codec ID : isom (isom/avc1)
File size : 111 MiB
Duration : 24 min
Overall bit rate mode : Variable
Overall bit rate : 644 kb/s
Encoded date : UTC 2018-03-05 16:00:09
Tagged date : UTC 2018-03-05 16:00:09

Video
ID : 1
Format : AVC
Format/Info : Advanced Video Codec
Format profile : [email protected]
Format settings, CABAC : Yes
Format settings, ReFrames : 2 frames
Codec ID : avc1
Codec ID/Info : Advanced Video Coding
Duration : 24 min
Bit rate : 512 kb/s
Maximum bit rate : 1 618 kb/s
Width : 480 pixels
Height : 272 pixels
Display aspect ratio : 16:9
Frame rate mode : Constant
Frame rate : 23.976 (24000/1001) FPS
Color space : YUV
Chroma subsampling : 4:2:0
Bit depth : 8 bits
Scan type : Progressive
Bits/(Pixel*Frame) : 0.164
Stream size : 87.9 MiB (79%)
Writing library : x264 core 65 r999kMod cc51047
Encoding settings : cabac=1 / ref=2 / deblock=1:-2:-1 / analyse=0x1:0x131 / me=umh / subme=7 / psy_rd=1.0:0.0 / mixed_ref=1 / me_range=16 / chroma_me=1 / trellis=2 / 8x8dct=0 / cqm=0 / deadzone=21,11 / chroma_qp_offset=-2 / threads=2 / thread_queue=2 / nr=0 / decimate=0 / mbaff=0 / bframes=3 / b_pyramid=0 / b_adapt=1 / b_bias=0 / direct=3 / wpredb=1 / keyint=250 / keyint_min=25 / scenecut=40(pre) / rc=2pass / bitrate=512 / ratetol=1.0 / qcomp=0.60 / qpmin=10 / qpmax=51 / qpstep=4 / cplxblur=20.0 / qblur=0.5 / ip_ratio=1.40 / pb_ratio=1.30 / aq=1:1.00
Encoded date : UTC 2018-03-05 16:00:09
Tagged date : UTC 2018-03-05 16:00:13

Audio
ID : 2
Format : AAC
Format/Info : Advanced Audio Codec
Format profile : LC
Codec ID : 40
Duration : 24 min
Bit rate mode : Variable
Bit rate : 129 kb/s
Maximum bit rate : 154 kb/s
Channel(s) : 2 channels
Channel positions : Front: L R
Sampling rate : 48.0 kHz
Frame rate : 46.875 FPS (1024 spf)
Compression mode : Lossy
Stream size : 22.1 MiB (20%)
Encoded date : UTC 2018-03-05 16:00:11
Tagged date : UTC 2018-03-05 16:00:13


Трекер:  [ 27-Мар-2018 14:06 ]

  

Скачать .torrent

Размер .torrent файла 14 KB


Размер: 1.29 GB
Хэш (hash) релиза: 0d656ae7d7fe2ac6140559944455c393048520f6
Подписка на обновления:

Торренты, похожие на Цитрус Citrus скачать торрент

Форум Название Автор Размер S L Добавлен
PSP | Аниме ·· Цитрус / Citrus (Такахаси Такэо) [TV] [12 из 12] [Без хардсаба] [JAP+SUB] [2018, Драма, романтика, школа, сёдзе ай, WEBRip][Субтитры] Galfimbul 11335826731.06 GB 0 0 1522150614

14:36

27-Мар-18

Еще никто не оставлял запись к записи скачать торрент Цитрус Citrus . Будь первым!

!Обратная связь