Documentaries | Dashing Detective (Thupparivaalan) 2018 720p Hindi Dubbed HD x264 Mysskin has taken the essence and given us an Indian version of Sherlock Holmes. He has truly stuck to the core of Sherlock and produced one of the best thriller in Tamil movie. Vishal has excelled in his role. The background score , the fight sequence is top notch. | Vikings - Season 4

Скачать через торрент Женщины против мужчин: Крымские каникулы Фильм бесплатно в хорошем качестве torrent

Скачивайте на UnionPeer.org фильмы через торрент без регистрации. Новинки кино в хорошем качестве через торрент. На UnionPeer.org можно скачать через торрент фильмы 2014 и 2015 годов. Самые новые фильмы.

Скачать торрент Женщины против мужчин: Крымские каникулы бесплатно через .torrent фильм мультфильм сериал

Статистика раздачи
Размер:  2.71 GB   |    Зарегистрирован:  7 месяцев   |    .torrent скачан:  520 раз   |   
Раздают:  1  
   
загрузка...
 
Автор Сообщение

Galfimbul

avatar Galfimbul


Год выпуска: 2017
Жанр: Комедия
Режиссер: Леонид Марголин
В ролях: Настасья Самбурская, Наталья Рудова, Мария Кравченко, Александр Головин, Денис Косяков, Роман Юнусов, Мария Горбань, Вадим Галыгин

О фильме:
Отправиться в отпуск сразу после развода — довольно заманчивая идея. Особенно, если за компанию можно прихватить двух своих лучших приятелей. Но, когда в том же отеле встречаешь свою бывшую жену-красавицу, то это к неприятностям. А если экс-супруга оказывается там же с двумя своими лучшими подругами, которые к тому же являются бывшими женами твоих друзей, — то легкая месть за старые обиды превращается в увлекательную «войну» и незабываемые приключения.


Выпущено: Россия, Vice Films
Продолжительность: 01:15:33
Субтитры: Отсутствуют

Качество: WEB-DL 1080p
Формат: mkv
Видео кодек: AVC
Аудио кодек: AC3
Видео: 1920x802, 23.976 fps, 4626 Кбит/с
Аудио: 384 kb/s, 6 ch, 48.0 KHz
Video
ID : 1
Format : AVC
Format/Info : Advanced Video Codec
Format profile : [email protected]
Format settings : CABAC / 5 Ref Frames
Format settings, CABAC : Yes
Format settings, ReFrames : 5 frames
Codec ID : V_MPEG4/ISO/AVC
Duration : 1 h 15 min
Bit rate : 4 626 kb/s
Width : 1 920 pixels
Height : 802 pixels
Display aspect ratio : 2.40:1
Frame rate mode : Constant
Frame rate : 24.000 FPS
Color space : YUV
Chroma subsampling : 4:2:0
Bit depth : 8 bits
Scan type : Progressive
Bits/(Pixel*Frame) : 0.125
Stream size : 2.45 GiB (90%)
Language : English
Default : Yes
Forced : No
Color range : Limited
Color primaries : BT.709
Transfer characteristics : BT.709
Matrix coefficients : BT.709

Audio
ID : 2
Format : AC-3
Format/Info : Audio Coding 3
Codec ID : A_AC3
Duration : 1 h 15 min
Bit rate mode : Constant
Bit rate : 384 kb/s
Channel(s) : 2 channels
Channel positions : Front: L R
Sampling rate : 48.0 kHz
Frame rate : 31.250 FPS (1536 SPF)
Bit depth : 16 bits
Compression mode : Lossy
Stream size : 208 MiB (8%)
Title : [ORIGNAL] DD 5.1 @ 384 kbps (iTunes)
Language : Russian
Service kind : Complete Main
Default : Yes
Forced : No

Menu
00:00:00.000 : en:Глава 1
00:06:45.666 : en:Глава 2
00:12:51.791 : en:Глава 3
00:19:51.166 : en:Глава 4
00:25:58.957 : en:Глава 5
00:31:46.082 : en:Глава 6
00:37:20.457 : en:Глава 7
00:42:37.165 : en:Глава 8
00:50:08.123 : en:Глава 9
00:55:53.873 : en:Глава 10
01:01:13.123 : en:Глава 11
01:06:33.081 : en:Глава 12
Источник http://arutor.org

Трекер:  [ 08-Мар-2018 07:10 ]

  

Скачать .torrent

Размер .torrent файла 14 KB


Размер: 2.71 GB
Хэш (hash) релиза: 607dd3e40099e34c2679a6c7b572e2228de2fef2
Подписка на обновления:

Торренты, похожие на Женщины против мужчин: Крымские каникулы скачать торрент

Форум Название Автор Размер S L Добавлен
Российские фильмы до 2016 ·· Женщины против мужчин: Крымские каникулы (Леонид Марголин) [2017, комедия, мелодрама, WEB-DLRip] Galfimbul 777451520741 MB 0 0 1520587713

12:28

9-Мар-18

Российские фильмы 2016-2018 (Новинки русского кино) ·· Женщины против мужчин: Крымские каникулы (Леонид Марголин) [2018 г., комедия, мелодрама, WEB-DL 720p] | iTunes Galfimbul 25010047732.33 GB 0 0 1520496566

11:09

8-Мар-18

Российские фильмы до 2016 ·· Женщины против мужчин: Крымские каникулы (Леонид Марголин) [2017, Россия, комедия, мелодрама, WEB-DLRip] Galfimbul 14676049921.37 GB 0 0 1520494120

10:28

8-Мар-18

Российские фильмы 2016-2018 (Новинки русского кино) ·· Женщины против мужчин: Крымские каникулы (Леонид Марголин) [2017 г., комедия, мелодрама, WEB-DLRip] iTunes Galfimbul 14677954561.37 GB 0 0 1520479886

06:31

8-Мар-18

Российские фильмы 2016-2018 (Новинки русского кино) ·· Женщины против мужчин: Крымские каникулы (Леонид Марголин) [2017 г., комедия, мелодрама, TS 720p] Galfimbul 16563016561.54 GB 0 0 1518256998

13:03

10-Фев-18

Российские фильмы 2016-2018 (Новинки русского кино) ·· Женщины против мужчин: Крымские каникулы (Леонид Марголин) [2017 г., комедия, мелодрама, TS] Galfimbul 14676070401.37 GB 0 0 1518256996

13:03

10-Фев-18

Еще никто не оставлял запись к записи скачать торрент Женщины против мужчин: Крымские каникулы . Будь первым!

!Обратная связь