St. John - Progressions Into Trance 2 | Pumpin Pat - Deep Thing | Browse Torrents

Скачать через торрент Путешествие Кино: Прекрасный мир Kino no Tabi: The Beautiful World - The Animated Series Фильм бесплатно в хорошем качестве torrent

Скачивайте на UnionPeer.org фильмы через торрент без регистрации. Новинки кино в хорошем качестве через торрент. На UnionPeer.org можно скачать через торрент фильмы 2014 и 2015 годов. Самые новые фильмы.

Скачать торрент Путешествие Кино: Прекрасный мир Kino no Tabi: The Beautiful World - The Animated Series бесплатно через .torrent фильм мультфильм сериал

Статистика раздачи
Размер:  1.28 GB   |    Зарегистрирован:  3 месяца 21 день   |    .torrent скачан:  25 раз   |   
Раздают:  1  
   
загрузка...
 
Автор Сообщение

Galfimbul

avatar Galfimbul


Путешествие Кино: Прекрасный мир
Оригинальное название: キノの旅 -the Beautiful World- the Animated Series
Английское название: Kino no Tabi: The Beautiful World - The Animated Series
Период трансляции: c 06.10.2017 по 22.12.2017
Страна: Япония
Жанр: приключения, драма, повседневность
Продолжительность: 12 эп. по ~24 мин.
Режиссер: Тагути Томохиса
Студия:
Перевод: Субтитры от [YakuSub Studio]
Переводчик: Lulu
Редактор: Aero
Оформление: Helge
Описание: Данная история расскажет нам об огромном континенте, разделённом между большим количеством маленьких государств. Всё это немного напоминает Европу начала ХХ века. Государства этого мира практически не взаимодействуют друг с другом и находятся на разном уровне развития: где-то позднее средневековье, где-то изобрели радио и печатную машинку, а где-то уже создали искусственный интеллект. Одновременно с этим, в мире присутствуют сказочные элементы, вроде говорящих животных.
Кино — путешественница, которая со своим напарником, Гермесом, странствует от одного государства к другому, изучая различные культуры и народы. Но есть одно, так сказать, условие: они остаются в каждом городе ровно на три дня.
Что же будет ожидать Кино и Гермеса в этих городах?
1. A Country Where People Can Kill Others
2. Colosseum
3. Bothersome Country
4. Ship Country
5. Country of Liars
6. In the Clouds
7. Historic Country
8. Country of Radio Waves
9. Various Countries
10. Kind Country
11. Country of Adults
12. Fields of Sheep

Качество видео: WEBRip
Формат: MP4
Видео кодек: H.264
Аудио кодек: AAC
Видео: MPEG4 Video (H264) 480x272 23.976fps 511kbps
Аудио: AAC 44100Hz stereo 129kbps
Format : MPEG-4
Format profile : Base Media
Codec ID : isom (isom/avc1)
File size : 109 MiB
Duration : 23 min
Overall bit rate mode : Variable
Overall bit rate : 643 kb/s
Encoded date : UTC 2018-02-21 19:20:12
Tagged date : UTC 2018-02-21 19:20:12

Video
ID : 1
Format : AVC
Format/Info : Advanced Video Codec
Format profile : [email protected]
Format settings, CABAC : Yes
Format settings, ReFrames : 2 frames
Codec ID : avc1
Codec ID/Info : Advanced Video Coding
Duration : 23 min
Bit rate : 512 kb/s
Maximum bit rate : 3 015 kb/s
Width : 480 pixels
Height : 272 pixels
Display aspect ratio : 16:9
Frame rate mode : Constant
Frame rate : 23.976 (24000/1001) FPS
Original frame rate : 23.976 (23976/1000) FPS
Color space : YUV
Chroma subsampling : 4:2:0
Bit depth : 8 bits
Scan type : Progressive
Bits/(Pixel*Frame) : 0.164
Stream size : 86.5 MiB (79%)
Writing library : x264 core 65 r999kMod cc51047
Encoding settings : cabac=1 / ref=2 / deblock=1:-2:-1 / analyse=0x1:0x131 / me=umh / subme=7 / psy_rd=1.0:0.0 / mixed_ref=1 / me_range=16 / chroma_me=1 / trellis=2 / 8x8dct=0 / cqm=0 / deadzone=21,11 / chroma_qp_offset=-2 / threads=2 / thread_queue=2 / nr=0 / decimate=0 / mbaff=0 / bframes=3 / b_pyramid=0 / b_adapt=1 / b_bias=0 / direct=3 / wpredb=1 / keyint=250 / keyint_min=25 / scenecut=40(pre) / rc=2pass / bitrate=512 / ratetol=1.0 / qcomp=0.60 / qpmin=10 / qpmax=51 / qpstep=4 / cplxblur=20.0 / qblur=0.5 / ip_ratio=1.40 / pb_ratio=1.30 / aq=1:1.00
Encoded date : UTC 2018-02-21 19:20:12
Tagged date : UTC 2018-02-21 19:20:28

Audio
ID : 2
Format : AAC
Format/Info : Advanced Audio Codec
Format profile : LC
Codec ID : 40
Duration : 23 min
Bit rate mode : Variable
Bit rate : 129 kb/s
Maximum bit rate : 183 kb/s
Channel(s) : 2 channels
Channel positions : Front: L R
Sampling rate : 44.1 kHz
Frame rate : 43.066 FPS (1024 spf)
Compression mode : Lossy
Stream size : 21.8 MiB (20%)
Encoded date : UTC 2018-02-21 19:20:23
Tagged date : UTC 2018-02-21 19:20:28


Трекер:  [ 01-Мар-2018 18:42 ]

  

Скачать .torrent

Размер .torrent файла 14 KB


Размер: 1.28 GB
Хэш (hash) релиза: d63025438f5247ffd340b8003a8663d584f5d0fb
Подписка на обновления:

Еще никто не оставлял запись к записи скачать торрент Путешествие Кино: Прекрасный мир Kino no Tabi: The Beautiful World - The Animated Series . Будь первым!

!Обратная связь