Malware remover | Season 1 | Madam Secretary

Скачать через торрент Адская девочка: Разговоры в сумерках Фильм бесплатно в хорошем качестве torrent

Скачивайте на UnionPeer.org фильмы через торрент без регистрации. Новинки кино в хорошем качестве через торрент. На UnionPeer.org можно скачать через торрент фильмы 2014 и 2015 годов. Самые новые фильмы.

Скачать торрент Адская девочка: Разговоры в сумерках бесплатно через .torrent фильм мультфильм сериал

Статистика раздачи
Размер:  1.29 GB   |    Зарегистрирован:  8 месяцев   |    .torrent скачан:  36 раз   |   
Раздают:  1  
   
загрузка...
 
Автор Сообщение

Galfimbul

avatar Galfimbul


Jigoku Shoujo: Yoi no Togi
Оригинальное название: 地獄少女 宵伽
Английское название: Hell Girl: Fourth Twilight
Период трансляции: c 15.07.2017 по 30.09.2017
Страна: Япония
Жанр: мистика, драма, ужасы
Продолжительность: 12 эп. по 24 мин.
Режиссер: Омори Такахиро
Студия:
Перевод: Субтитры от AniPlay.TV : Elenka_San & Octupus & Loulka & Kaktus_chan & pani_Hel
Описание: Спустя девять лет после показа третьего сезона, Адская девочка вновь решила нанести визит в мир смертных! На просторах интернета есть один сайт под названием "Адская переписка”. Доступ к этому мистическому сайту открывается только в полночь. Ходят слухи, что если вписать на сайте имя человека, которого ты всем сердцем ненавидишь, то к нему явится Адская девочка и заберёт его душу с собой в ад. Эта легенда быстро распространилась среди молодёжи, но лишь немногие в курсе, что это не сказки, а правда.

У Адской девочки есть имя, её зовут Ай Энма. И если вы действительно кого-то ненавидите, то она, так и быть, поможет вам отомстить вашему обидчику. Но только не думайте, что Ай Энма сделает это бесплатно. Нет, ей не нужны деньги, да и ответная услуга тоже ни к чему. Решаясь на месть, ты заключаешь с ней контракт. И суть его в том, что в ад отправится не только ненавистный вам человек, но и вы. Тем не менее, даже при таких условиях, у неё имеются клиенты. Новый сезон покажет нам воспоминания Ай, а также продолжение её истории.
1. Can't Be Seen, Can't Be Heard
2. There's Only You
3. Someday, Somebody Will…
4. Bury Me Deep
5. I Can Hear the Song of the Wind
6. Twill
7. The Tarnished Mound (S1 ep 3)
8. Early Afternoon Window (S1 ep 6)
9. Spilled Bits (S1 ep 12)
10. Black Rut (S2 ep 12)
11. A Bird in a Cage (S3 ep 2)
12. Stray Inari (S3 ep 9)

Качество видео: HDTVRip
Формат: MP4
Видео кодек: H.264
Аудио кодек: AAC
Видео: MPEG4 Video (H264) 480x272 23.976fps 511kbps
Аудио: AAC 44100Hz stereo 129kbps
General
Complete name : C:\Documents and Settings\BK201\Рабочий стол\Jigoku Shoujo 4 - Yoi no Togi\Jigoku Shoujo - Yoi no Togi - 01.mp4
Format : MPEG-4
Format profile : Base Media
Codec ID : isom (isom/avc1)
File size : 110 MiB
Duration : 23 min
Overall bit rate mode : Variable
Overall bit rate : 644 kb/s
Encoded date : UTC 2018-01-15 08:08:23
Tagged date : UTC 2018-01-15 08:08:23

Video
ID : 1
Format : AVC
Format/Info : Advanced Video Codec
Format profile : [email protected]
Format settings, CABAC : Yes
Format settings, ReFrames : 2 frames
Codec ID : avc1
Codec ID/Info : Advanced Video Coding
Duration : 23 min
Bit rate : 512 kb/s
Maximum bit rate : 3 632 kb/s
Width : 480 pixels
Height : 272 pixels
Display aspect ratio : 16:9
Frame rate mode : Constant
Frame rate : 23.976 (24000/1001) FPS
Original frame rate : 23.976 (23976/1000) FPS
Color space : YUV
Chroma subsampling : 4:2:0
Bit depth : 8 bits
Scan type : Progressive
Bits/(Pixel*Frame) : 0.164
Stream size : 87.6 MiB (79%)
Writing library : x264 core 65 r999kMod cc51047
Encoding settings : cabac=1 / ref=2 / deblock=1:-2:-1 / analyse=0x1:0x131 / me=umh / subme=7 / psy_rd=1.0:0.0 / mixed_ref=1 / me_range=16 / chroma_me=1 / trellis=2 / 8x8dct=0 / cqm=0 / deadzone=21,11 / chroma_qp_offset=-2 / threads=2 / thread_queue=2 / nr=0 / decimate=0 / mbaff=0 / bframes=3 / b_pyramid=0 / b_adapt=1 / b_bias=0 / direct=3 / wpredb=1 / keyint=250 / keyint_min=25 / scenecut=40(pre) / rc=2pass / bitrate=512 / ratetol=1.0 / qcomp=0.60 / qpmin=10 / qpmax=51 / qpstep=4 / cplxblur=20.0 / qblur=0.5 / ip_ratio=1.40 / pb_ratio=1.30 / aq=1:1.00
Encoded date : UTC 2018-01-15 08:08:23
Tagged date : UTC 2018-01-15 08:08:36

Audio
ID : 2
Format : AAC
Format/Info : Advanced Audio Codec
Format profile : LC
Codec ID : 40
Duration : 23 min
Bit rate mode : Variable
Bit rate : 129 kb/s
Maximum bit rate : 169 kb/s
Channel(s) : 2 channels
Channel positions : Front: L R
Sampling rate : 44.1 kHz
Frame rate : 43.066 FPS (1024 spf)
Compression mode : Lossy
Stream size : 22.1 MiB (20%)
Encoded date : UTC 2018-01-15 08:08:34
Tagged date : UTC 2018-01-15 08:08:36
Серия состоит из:
1. Адская девочка (первый сезон) - ТВ (26 эп.), оригинальный сериал, 2005
2. Адская девочка (второй сезон) - ТВ (26 эп.), продолжение, 2006
3. Адская девочка (третий сезон) - ТВ (26 эп.), продолжение, 2008
4. Адская девочка (четвёртый сезон) - ТВ (12 эп.), продолжение, 2017

Трекер:  [ 05-Фев-2018 15:12 ]

  

Скачать .torrent

Размер .torrent файла 15 KB


Размер: 1.29 GB
Хэш (hash) релиза: 164f61a5995424e94c1156e4555fb4019d8f98bb
Подписка на обновления:

Еще никто не оставлял запись к записи скачать торрент Адская девочка: Разговоры в сумерках . Будь первым!

!Обратная связь