Eps10 American Playboy: The Hugh Hefner Story (2017) | Charlene Choi | Power Rangers In Space

Скачать через торрент Терминатор 2: Судный день в 3Д Terminator 2: Judgment Day 3D Фильм бесплатно в хорошем качестве torrent

Скачивайте на UnionPeer.org фильмы через торрент без регистрации. Новинки кино в хорошем качестве через торрент. На UnionPeer.org можно скачать через торрент фильмы 2014 и 2015 годов. Самые новые фильмы.

Скачать торрент Терминатор 2: Судный день в 3Д Terminator 2: Judgment Day 3D бесплатно через .torrent фильм мультфильм сериал

Статистика раздачи
Размер:  13.2 GB   |    Зарегистрирован:  5 месяцев 11 дней   |    .torrent скачан:  88 раз   |   
Раздают:  2  
   
загрузка...
 
Автор Сообщение

Galfimbul

avatar Galfimbul


Терминатор 2: Судный день / Terminator 2: Judgment Day
Театральная версия
Год выпуска: 1991(3D - 2017г.)
Страна: США, Франция (Carolco Pictures Inc., Pacific Western, Lightstorm Entertainment. РЕМАСТЕРИНГ 2017г: Studiocanal, DMG Entertainment)
Жанр: Фантастика, Боевик, Триллер
Продолжительность: 02:17:23

Перевод: Профессиональный (многоголосый закадровый)
Русские субтитры: нет
Режиссер: Джеймс Кэмерон / James Cameron

В ролях: Арнольд Шварценеггер, Линда Хэмилтон, Эдвард Ферлонг, Роберт Патрик, Эрл Боэн, Джон Мортон, Дэнни Кукси, Дженнет Голдстин, Ксандер Беркли

Описание: Прошло более десяти лет с тех пор, как киборг-терминатор из 2029 года пытался уничтожить Сару Коннор — женщину, чей будущий сын выиграет войну человечества против машин.
Теперь у Сары родился сын Джон и время, когда он поведёт за собой выживших людей на борьбу с машинами, неумолимо приближается. Именно в этот момент из постапокалиптического будущего прибывает новый терминатор — практически неуязвимый и способный принимать любое обличье. Цель нового терминатора уже не Сара, а уничтожение молодого Джона Коннора.
Однако шансы Джона на спасение существенно повышаются, когда на помощь приходит перепрограммированный сопротивлением терминатор предыдущего поколения. Оба киборга вступают в смертельный бой, от исхода которого зависит судьба человечества.

Сэмпл: http://sendfile.su/1381080

Качество: BDrip
Контейнер: MKV
Формат 3D: OverUnder / Вертикальная стереопара
Порядок ракурсов: левый ракурс первый
Видео кодек: x264
Аудио кодек: AC3
Видео: AVC / [email protected] / 23,976 fps / 1920х2160 / 12,2 Мбит/сек
Аудио: Русский / AC3 / 48 KHz / 5.1 ch / 640 Кбит/сек(MVO Twister(редакция Ash61))
Аудио 2: Английский / AC3 / 48 KHz / 5.1 ch / 640 Кбит/сек

ВНИМАНИЕ ! На встроенных ТВ-плеерах работать не будет!!!
ТВ Samsung в названии которого есть надпись Ultra HD , и LG Ultra HD 800 серии, LG C6P, Xiaomi Mi TV 2 воспроизводят полные стереопары встроенными плеерами
Железные плееры на которых воспроизводятся полные стереопары:Popcorn C-200 , Dune HD Smart D1 , Dune HD DUO , Dune HD Smart H1 , Dune HD Smart B1 , Dune HD Max , Dune HD TV-303D , Dune HD Base 3D, Philips HMP7001, Aura HD, MECOOL BB2
Чтобы изображение было на весь экран в плеере выставляем, если рип 1920х1600 - то выставляем 2.35:1 , если 1920х2160 - то выставляем 16:9
Общее
Уникальный идентификатор : 190923429642010826212774601355713525194 (0x8FA283D890936581B9BD838C82E735CA)
Полное имя : E:\закачки\Terminator 2 Judgment Day.Rip by SeRoGa00.mkv
Формат : Matroska
Версия формата : Version 2
Размер файла : 13,2 Гбайт
Продолжительность : 2 ч. 17 м.
Общий поток : 13,8 Мбит/сек
Дата кодирования : UTC 2017-11-29 08:37:21
Программа кодирования : mkvmerge v3.4.0 ('Rapunzel') сборка от May 15 2010 09:38:20
Библиотека кодирования : libebml v0.8.0 + libmatroska v0.9.0

Видео
Идентификатор : 1
Формат : AVC
Формат/Информация : Advanced Video Codec
Профиль формата : [email protected]
Параметр CABAC формата : Да
Параметр ReFrames формата : 4 кадра
Идентификатор кодека : V_MPEG4/ISO/AVC
Продолжительность : 2 ч. 17 м.
Битрейт : 12,2 Мбит/сек
Ширина : 1920 пикселей
Высота : 2160 пикселей
Соотношение сторон : 0,889
Частота кадров : 23,976 кадра/сек
Цветовое пространство : YUV
Субдискретизация насыщенности : 4:2:0
Битовая глубина : 8 бит
Тип развёртки : Прогрессивная
Бит/(Пиксели*Кадры) : 0.123
Размер потока : 11,7 Гбайт (89%)
Заголовок : Rip by SeRoGa00
Библиотека кодирования : x264 core 148 r2762 90a61ec
Настройки программы : cabac=1 / ref=4 / deblock=1:-3:-3 / analyse=0x3:0x113 / me=umh / subme=10 / psy=1 / psy_rd=1.00:0.15 / mixed_ref=1 / me_range=24 / chroma_me=1 / trellis=2 / 8x8dct=1 / cqm=0 / deadzone=21,11 / fast_pskip=1 / chroma_qp_offset=-3 / threads=9 / lookahead_threads=2 / sliced_threads=0 / nr=0 / decimate=1 / interlaced=0 / bluray_compat=0 / constrained_intra=0 / bframes=10 / b_pyramid=2 / b_adapt=2 / b_bias=0 / direct=3 / weightb=1 / open_gop=0 / weightp=2 / keyint=250 / keyint_min=23 / scenecut=40 / intra_refresh=0 / rc_lookahead=60 / rc=crf / mbtree=1 / crf=18.0 / qcomp=0.60 / qpmin=10 / qpmax=69 / qpstep=4 / vbv_maxrate=40000 / vbv_bufsize=40000 / crf_max=0.0 / nal_hrd=none / filler=0 / ip_ratio=1.40 / aq=1:1.00
Язык : English
Default : Нет
Forced : Нет

Аудио #1
Идентификатор : 2
Формат : AC-3
Формат/Информация : Audio Coding 3
Расширение режима : CM (complete main)
Параметр Endianness формата : Big
Идентификатор кодека : A_AC3
Продолжительность : 2 ч. 17 м.
Вид битрейта : Постоянный
Битрейт : 640 Кбит/сек
Каналы : 6 каналов
Расположение каналов : Front: L C R, Side: L R, LFE
Частота : 48,0 КГц
Битовая глубина : 16 бит
Метод сжатия : С потерями
Размер потока : 629 Мбайт (5%)
Язык : Russian
Default : Да
Forced : Нет

Аудио #2
Идентификатор : 3
Формат : AC-3
Формат/Информация : Audio Coding 3
Расширение режима : CM (complete main)
Параметр Endianness формата : Big
Идентификатор кодека : A_AC3
Продолжительность : 2 ч. 17 м.
Вид битрейта : Постоянный
Битрейт : 640 Кбит/сек
Каналы : 6 каналов
Расположение каналов : Front: L C R, Side: L R, LFE
Частота : 48,0 КГц
Битовая глубина : 16 бит
Метод сжатия : С потерями
Размер потока : 629 Мбайт (5%)
Язык : English
Default : Нет
Forced : Нет


Трекер:  [ 04-Фев-2018 14:30 ]

  

Скачать .torrent

Размер .torrent файла 66 KB


Размер: 13.2 GB
Хэш (hash) релиза: 7463e5080ba8899f8e7bbe301b45f8d6cf0490bd
Подписка на обновления:

Торренты, похожие на Терминатор 2: Судный день в 3Д Terminator 2: Judgment Day 3D скачать торрент

Форум Название Автор Размер S L Добавлен
3D Фильмы, кино ·· Терминатор 2: Судный день в 3Д / Terminator 2: Judgment Day 3D (Джеймс Кэмерон / James Cameron) [1991, Фантастика, Боевик, Триллер, BDremux, 1080p] BD3D [Re-Encode][Специальная расширенная версия / Extended Special Edition] Galfimbul 4296985804840.02 GB 0 0 1517744126

14:35

4-Фев-18

3D Фильмы, кино ·· Терминатор 2: Судный день в 3Д / Terminator 2: Judgment Day 3D (Джеймс Кэмерон / James Cameron) [1991 (2017), Фантастика, Боевик, Триллер, BDrip] (Театральная версия / Theatrical Version) Half OverUnder / Вертикальная анаморфная стереопара Galfimbul 1815825859916.91 GB 0 0 1517744112

14:35

4-Фев-18

3D Фильмы, кино ·· Терминатор 2: Судный день в 3Д / Terminator 2: Judgment Day 3D (Джеймс Кэмерон / James Cameron) [1991 (2017), Фантастика, Боевик, BDrip] [Расширенная специальная версия / Extended Special Edition] Half OverUnder / Вертикальная анаморфная стереопара Galfimbul 2102939526419.59 GB 0 0 1517744098

14:34

4-Фев-18

3D Фильмы, кино ·· Терминатор 2: Судный день в 3Д / Terminator 2: Judgment Day 3D (Джеймс Кэмерон / James Cameron) [1991, Фантастика, Боевик, Триллер, HDrip, 1080p] [Расширенная специальная версия / Extended Special Edition] OverUnder / Вертикальная стереопара Galfimbul 2110647509419.66 GB 0 0 1517739228

13:13

4-Фев-18

Еще никто не оставлял запись к записи скачать торрент Терминатор 2: Судный день в 3Д Terminator 2: Judgment Day 3D . Будь первым!

!Обратная связь