Русский | Odwet / 1:54 (2016) | Rien n'emprisonne l'innocence

Скачать через торрент Тэд-путешественник и тайна царя Мидаса в 3Д Tad the Lost Explorer and the Secret of King Midas 3D Фильм бесплатно в хорошем качестве torrent

Скачивайте на UnionPeer.org фильмы через торрент без регистрации. Новинки кино в хорошем качестве через торрент. На UnionPeer.org можно скачать через торрент фильмы 2014 и 2015 годов. Самые новые фильмы.

Скачать торрент Тэд-путешественник и тайна царя Мидаса в 3Д Tad the Lost Explorer and the Secret of King Midas 3D бесплатно через .torrent фильм мультфильм сериал

Статистика раздачи
Размер:  6.04 GB   |    Зарегистрирован:  5 месяцев 11 дней   |    .torrent скачан:  33 раза   |   
Раздают:  1  
   
загрузка...
 
Автор Сообщение

Galfimbul

avatar Galfimbul


Тэд-путешественник и тайна царя Мидаса / Tad the Lost Explorer and the Secret of King Midas

Год выпуска: 2017
Страна: Испания (Paramount Pictures, Mediaset España, Moviestar+, ...)
Жанр: Мультфильм, Комедия, Приключения, Семейный
Продолжительность: 01:24:59

Перевод: Профессиональный дублированный(iTunes)
Русские субтитры: нет
Режиссер: Давид Алонсо, Энрике Гато / David Alonso, Enrique Gato

Роли озвучивали: Оскар Барберан, Мишель Хеннер, Адриана Угарте, Луис Посада, Мигель Анхель Хеннер, Хосе Корбачо, Росер Баталья, Рафаэль Калво, Давид Брау, Франческ Бельда

Описание: Тэд, не самый удачливый и ловкий исследователь и путешественник, и его странноватые друзья, в числе которых настоящая мумия и смышленый пес Джефф, отправляются на розыски злобного богача Джека Рэкхема, похитившего Сару. Любимая Тэда обнаружила, где спрятаны сокровища легендарного царя Мидаса, и злодей надеется их заполучить. Но Тэд и его команда должны разрушить планы беспринципного богача и освободить Сару!

Сэмпл: http://sendfile.su/1391658

Качество: BDrip
Контейнер: MKV
Формат 3D: OverUnder / Вертикальная стереопара
Порядок ракурсов: левый ракурс первый
Видео кодек: x264
Аудио кодек: AC3
Видео: AVC / [email protected] / 23,976 fps / 1920х2160 / 8951 Кбит/сек
Аудио: Русский / AC3 / 48 KHz / 5.1 ch / 384 Кбит/сек(iTunes)
Аудио 2: Английский / AC3 / 48 KHz / 5.1 ch / 640 Кбит/сек

ВНИМАНИЕ ! На встроенных ТВ-плеерах работать не будет!!!
ТВ Samsung в названии которого есть надпись Ultra HD , и LG Ultra HD 800 серии, LG C6P, Xiaomi Mi TV 2 воспроизводят полные стереопары встроенными плеерами
Железные плееры на которых воспроизводятся полные стереопары:Popcorn C-200 , Dune HD Smart D1 , Dune HD DUO , Dune HD Smart H1 , Dune HD Smart B1 , Dune HD Max , Dune HD TV-303D , Dune HD Base 3D, Philips HMP7001, Aura HD, MECOOL BB2
Чтобы изображение было на весь экран в плеере выставляем, если рип 1920х1600 - то выставляем 2.35:1 , если 1920х2160 - то выставляем 16:9
Общее
Уникальный идентификатор : 231154843914896810138455820470554621163 (0xADE6CDB6ABBBD85E8C658E34BEEA74EB)
Полное имя : E:\закачки\Tadeo Jones 2 El secreto del Rey Midas.Rip by SeRoGa00.mkv
Формат : Matroska
Версия формата : Version 2
Размер файла : 6,04 Гбайт
Продолжительность : 1 ч. 24 м.
Общий поток : 10,2 Мбит/сек
Дата кодирования : UTC 2018-01-15 13:04:56
Программа кодирования : mkvmerge v3.4.0 ('Rapunzel') сборка от May 15 2010 09:38:20
Библиотека кодирования : libebml v0.8.0 + libmatroska v0.9.0

Видео
Идентификатор : 1
Формат : AVC
Формат/Информация : Advanced Video Codec
Профиль формата : [email protected]
Параметр CABAC формата : Да
Параметр ReFrames формата : 4 кадра
Идентификатор кодека : V_MPEG4/ISO/AVC
Продолжительность : 1 ч. 24 м.
Битрейт : 8951 Кбит/сек
Ширина : 1920 пикселей
Высота : 2160 пикселей
Соотношение сторон : 0,889
Частота кадров : 23,976 кадра/сек
Цветовое пространство : YUV
Субдискретизация насыщенности : 4:2:0
Битовая глубина : 8 бит
Тип развёртки : Прогрессивная
Бит/(Пиксели*Кадры) : 0.090
Размер потока : 5,31 Гбайт (88%)
Заголовок : Rip by SeRoGa00
Библиотека кодирования : x264 core 148 r2762 90a61ec
Настройки программы : cabac=1 / ref=4 / deblock=1:-3:-3 / analyse=0x3:0x113 / me=umh / subme=10 / psy=1 / psy_rd=1.00:0.15 / mixed_ref=1 / me_range=24 / chroma_me=1 / trellis=2 / 8x8dct=1 / cqm=0 / deadzone=21,11 / fast_pskip=1 / chroma_qp_offset=-3 / threads=9 / lookahead_threads=2 / sliced_threads=0 / nr=0 / decimate=1 / interlaced=0 / bluray_compat=0 / constrained_intra=0 / bframes=10 / b_pyramid=2 / b_adapt=2 / b_bias=0 / direct=3 / weightb=1 / open_gop=0 / weightp=2 / keyint=250 / keyint_min=23 / scenecut=40 / intra_refresh=0 / rc_lookahead=60 / rc=crf / mbtree=1 / crf=18.0 / qcomp=0.60 / qpmin=10 / qpmax=69 / qpstep=4 / vbv_maxrate=40000 / vbv_bufsize=40000 / crf_max=0.0 / nal_hrd=none / filler=0 / ip_ratio=1.40 / aq=1:1.00
Язык : English
Default : Нет
Forced : Нет

Аудио #1
Идентификатор : 2
Формат : AC-3
Формат/Информация : Audio Coding 3
Расширение режима : CM (complete main)
Параметр Endianness формата : Big
Идентификатор кодека : A_AC3
Продолжительность : 1 ч. 24 м.
Вид битрейта : Постоянный
Битрейт : 384 Кбит/сек
Каналы : 6 каналов
Расположение каналов : Front: L C R, Side: L R, LFE
Частота : 48,0 КГц
Битовая глубина : 16 бит
Метод сжатия : С потерями
Размер потока : 233 Мбайт (4%)
Язык : Russian
Default : Да
Forced : Нет

Аудио #2
Идентификатор : 3
Формат : AC-3
Формат/Информация : Audio Coding 3
Расширение режима : CM (complete main)
Параметр Endianness формата : Big
Идентификатор кодека : A_AC3
Продолжительность : 1 ч. 24 м.
Вид битрейта : Постоянный
Битрейт : 640 Кбит/сек
Каналы : 6 каналов
Расположение каналов : Front: L C R, Side: L R, LFE
Частота : 48,0 КГц
Битовая глубина : 16 бит
Метод сжатия : С потерями
Размер потока : 389 Мбайт (6%)
Язык : English
Default : Нет
Forced : Нет


Трекер:  [ 04-Фев-2018 13:01 ]

  

Скачать .torrent

Размер .torrent файла 30 KB


Размер: 6.04 GB
Хэш (hash) релиза: 9cdc4de17c3698289dd56b827b5db19af59a5ee3
Подписка на обновления:

Еще никто не оставлял запись к записи скачать торрент Тэд-путешественник и тайна царя Мидаса в 3Д Tad the Lost Explorer and the Secret of King Midas 3D . Будь первым!

!Обратная связь