Watch movie | Angetenar Single | Catherine Keener

Скачать через торрент ЛЕГО Ниндзяго Фильм в 3Д The LEGO Ninjago Movie 3D Фильм бесплатно в хорошем качестве torrent

Скачивайте на UnionPeer.org фильмы через торрент без регистрации. Новинки кино в хорошем качестве через торрент. На UnionPeer.org можно скачать через торрент фильмы 2014 и 2015 годов. Самые новые фильмы.

Скачать торрент ЛЕГО Ниндзяго Фильм в 3Д The LEGO Ninjago Movie 3D бесплатно через .torrent фильм мультфильм сериал

Статистика раздачи
Размер:  8.18 GB   |    Зарегистрирован:  7 месяцев   |    .torrent скачан:  37 раз   |   
Раздают:  1  
   
загрузка...
 
Автор Сообщение

Galfimbul

avatar Galfimbul


ЛЕГО Ниндзяго Фильм / The LEGO Ninjago Movie

Год выпуска: 2017
Страна: США, Дания (Warner Bros. Pictures, Warner Animation Group, An Access Entertainment Company, LEGO System A/S, RatPac-Dune Entertainment, Lin Pictures, Lord Miller, Vertigo Entertainment)
Жанр: Мультфильм, Боевик, Комедия, Приключения, Семейный
Продолжительность: 01:41:27

Перевод: Профессиональный дублированный(лицензия)
Русские субтитры: нет
Режиссер на русском: Чарли Бин, Пол Фишер, Боб Логан / Charlie Bean, Paul Fisher, Bob Logan

Роли озвучивали: Джеки Чан, Дэйв Франко, Фред Армисен, Кумэйл Нанджиани, Майкл Пенья, Эбби Джейкобсон, Зак Вудс, Дэвид Берроуз, Alex Kauffman, Джастин Теру

Описание: Ниндзяго-сити призывает на свою защиту юного Ллойда, он же Зеленый ниндзя, и его друзей, тайных воинов и Великих мастеров ЛЕГО. Под предводительством кунг-фу мастера Ву, столь же умного, сколь и остроумного, они должны одолеть злобного диктатора Гармадона, Самого Злодейского Злодея, который оказывается отцом Ллойда. Роботы против роботов, сын против отца; эпическое столкновение проверит на прочность эту неистовую, но не самую дисциплинированную команду современных ниндзя, которые должны научиться усмирять свое самомнение, чтобы по полной проявить свои способности.

Сэмпл: http://sendfile.su/1392680

Качество: BDRip
Контейнер: MKV
Формат 3D: OverUnder / Вертикальная стереопара
Порядок ракурсов: левый ракурс первый
Видео кодек: x264
Аудио кодек: AC3
Видео: AVC / [email protected] / 23,976 fps / 1920х2160 / 10,2 Мбит/сек
Аудио: Русский / AC3 / 48 KHz / 5.1 ch / 448 Кбит/сек(лицензия)
Аудио 2: Английский / AC3 / 48 KHz / 5.1 ch / 640 Кбит/сек

ВНИМАНИЕ ! На встроенных ТВ-плеерах работать не будет!!!
ТВ Samsung в названии которого есть надпись Ultra HD , и LG Ultra HD 800 серии, LG C6P, Xiaomi Mi TV 2 воспроизводят полные стереопары встроенными плеерами
Железные плееры на которых воспроизводятся полные стереопары:Popcorn C-200 , Dune HD Smart D1 , Dune HD DUO , Dune HD Smart H1 , Dune HD Smart B1 , Dune HD Max , Dune HD TV-303D , Dune HD Base 3D, Philips HMP7001, Aura HD, MECOOL BB2
Чтобы изображение было на весь экран в плеере выставляем, если рип 1920х1600 - то выставляем 2.35:1 , если 1920х2160 - то выставляем 16:9
Общее
Уникальный идентификатор : 243111318354370444680876812647458434520 (0xB6E5896AA9FE43B1B3ED4304D3746DD8)
Полное имя : E:\закачки\The lego ninjago movie.Rip by SeRoGa00.mkv
Формат : Matroska
Версия формата : Version 2
Размер файла : 8,18 Гбайт
Продолжительность : 1 ч. 41 м.
Общий поток : 11,5 Мбит/сек
Дата кодирования : UTC 2018-01-20 06:05:52
Программа кодирования : mkvmerge v3.4.0 ('Rapunzel') сборка от May 15 2010 09:38:20
Библиотека кодирования : libebml v0.8.0 + libmatroska v0.9.0

Видео
Идентификатор : 1
Формат : AVC
Формат/Информация : Advanced Video Codec
Профиль формата : [email protected]
Параметр CABAC формата : Да
Параметр ReFrames формата : 4 кадра
Идентификатор кодека : V_MPEG4/ISO/AVC
Продолжительность : 1 ч. 41 м.
Битрейт : 10,2 Мбит/сек
Ширина : 1920 пикселей
Высота : 2160 пикселей
Соотношение сторон : 0,889
Частота кадров : 23,976 кадра/сек
Цветовое пространство : YUV
Субдискретизация насыщенности : 4:2:0
Битовая глубина : 8 бит
Тип развёртки : Прогрессивная
Бит/(Пиксели*Кадры) : 0.103
Размер потока : 7,24 Гбайт (89%)
Заголовок : Rip by SeRoGa00
Библиотека кодирования : x264 core 152 r2851 ba24899
Настройки программы : cabac=1 / ref=4 / deblock=1:-3:-3 / analyse=0x3:0x113 / me=umh / subme=10 / psy=1 / psy_rd=1.00:0.15 / mixed_ref=1 / me_range=24 / chroma_me=1 / trellis=2 / 8x8dct=1 / cqm=0 / deadzone=21,11 / fast_pskip=1 / chroma_qp_offset=-3 / threads=9 / lookahead_threads=2 / sliced_threads=0 / nr=0 / decimate=1 / interlaced=0 / bluray_compat=0 / constrained_intra=0 / bframes=10 / b_pyramid=2 / b_adapt=2 / b_bias=0 / direct=3 / weightb=1 / open_gop=0 / weightp=2 / keyint=250 / keyint_min=23 / scenecut=40 / intra_refresh=0 / rc_lookahead=60 / rc=crf / mbtree=1 / crf=18.0 / qcomp=0.60 / qpmin=10 / qpmax=69 / qpstep=4 / vbv_maxrate=40000 / vbv_bufsize=40000 / crf_max=0.0 / nal_hrd=none / filler=0 / frame-packing=4 / ip_ratio=1.40 / aq=1:1.00
Default : Да
Forced : Нет

Аудио #1
Идентификатор : 2
Формат : AC-3
Формат/Информация : Audio Coding 3
Расширение режима : CM (complete main)
Параметр Endianness формата : Big
Идентификатор кодека : A_AC3
Продолжительность : 1 ч. 41 м.
Вид битрейта : Постоянный
Битрейт : 448 Кбит/сек
Каналы : 6 каналов
Расположение каналов : Front: L C R, Side: L R, LFE
Частота : 48,0 КГц
Битовая глубина : 16 бит
Метод сжатия : С потерями
Размер потока : 325 Мбайт (4%)
Язык : Russian
Default : Да
Forced : Нет

Аудио #2
Идентификатор : 3
Формат : AC-3
Формат/Информация : Audio Coding 3
Расширение режима : CM (complete main)
Параметр Endianness формата : Big
Идентификатор кодека : A_AC3
Продолжительность : 1 ч. 41 м.
Вид битрейта : Постоянный
Битрейт : 640 Кбит/сек
Каналы : 6 каналов
Расположение каналов : Front: L C R, Side: L R, LFE
Частота : 48,0 КГц
Битовая глубина : 16 бит
Метод сжатия : С потерями
Размер потока : 464 Мбайт (6%)
Язык : English
Default : Нет
Forced : Нет


Трекер:  [ 04-Фев-2018 13:01 ]

  

Скачать .torrent

Размер .torrent файла 41 KB


Размер: 8.18 GB
Хэш (hash) релиза: c153b348c639bd1661591f014e963175633650f0
Подписка на обновления:

Торренты, похожие на ЛЕГО Ниндзяго Фильм в 3Д The LEGO Ninjago Movie 3D скачать торрент

Форум Название Автор Размер S L Добавлен
3D Мультфильмы ·· ЛЕГО Ниндзяго Фильм в 3Д / The LEGO Ninjago Movie 3D (Чарли Бин, Пол Фишер, Боб Логан / Charlie Bean, Paul Fisher, Bob Logan) [2017, Мультфильм, Боевик, Комедия, Приключения, Семейный, BDrip] Half OverUnder / Вертикальная анаморфная стереопара Galfimbul 70602120676.58 GB 0 0 1517744178

14:36

4-Фев-18

Еще никто не оставлял запись к записи скачать торрент ЛЕГО Ниндзяго Фильм в 3Д The LEGO Ninjago Movie 3D . Будь первым!

!Обратная связь