Alien Covenant 2017 PROPER KORSUB HDRip XviD MP3 STUTTERSHIT | Mitchell M. | 2015 MBC Korean Music Festival

Скачать через торрент Терминатор 2: Судный день в 3Д Terminator 2: Judgment Day 3D Фильм бесплатно в хорошем качестве torrent

Скачивайте на UnionPeer.org фильмы через торрент без регистрации. Новинки кино в хорошем качестве через торрент. На UnionPeer.org можно скачать через торрент фильмы 2014 и 2015 годов. Самые новые фильмы.

Скачать торрент Терминатор 2: Судный день в 3Д Terminator 2: Judgment Day 3D бесплатно через .torrent фильм мультфильм сериал

Статистика раздачи
Размер:  19.66 GB   |    Зарегистрирован:  5 месяцев 11 дней   |    .torrent скачан:  33 раза   |   
Раздают:  1  
   
загрузка...
 
Автор Сообщение

Galfimbul

avatar Galfimbul


Терминатор 2: Судный день / Terminator 2: Judgment Day
(Расширенная специальная версия / Extended Special Edition) (со вставками 2D)
Год выпуска: 1991(3D - 2017г.)
Страна: США, Франция (Carolco Pictures Inc., Pacific Western, Lightstorm Entertainment. РЕМАСТЕРИНГ 2017г: Studiocanal, DMG Entertainment)
Жанр: Фантастика, Боевик, Триллер
Продолжительность: 02:36:08

Перевод: Профессиональные (многоголосые закадровые+авторские одноголосые закадровые )
Русские субтитры: нет
Режиссер: Джеймс Кэмерон / James Cameron

В ролях: Арнольд Шварценеггер, Линда Хэмилтон, Эдвард Ферлонг, Роберт Патрик, Эрл Боэн, Джон Мортон, Дэнни Кукси, Дженнет Голдстин, Ксандер Беркли

Описание: Прошло более десяти лет с тех пор, как киборг-терминатор из 2029 года пытался уничтожить Сару Коннор — женщину, чей будущий сын выиграет войну человечества против машин.
Теперь у Сары родился сын Джон и время, когда он поведёт за собой выживших людей на борьбу с машинами, неумолимо приближается. Именно в этот момент из постапокалиптического будущего прибывает новый терминатор — практически неуязвимый и способный принимать любое обличье. Цель нового терминатора уже не Сара, а уничтожение молодого Джона Коннора.
Однако шансы Джона на спасение существенно повышаются, когда на помощь приходит перепрограммированный сопротивлением терминатор предыдущего поколения. Оба киборга вступают в смертельный бой, от исхода которого зависит судьба человечества.
Исходник: ...5487842

Сэмпл: http://sendfile.su/1384542

Качество: HDrip
Контейнер: MKV
Формат 3D: OverUnder / Вертикальная стереопара
Порядок ракурсов: левый ракурс первый
Видео кодек: x264
Аудио кодек: AC3
Видео: AVC / [email protected] / 23,976 fps / 1920х2160 / 13,1 Мбит/сек
Аудио: Русский / DTS / 48 KHz / 5.1 ch / 1510 Kbps (MVO - Киномания)
Аудио 2:Русский / DTS / 48 KHz / 5.1 ch / 1510 Kbps (AVO - А. Гаврилов)
Аудио 3:Русский / DTS / 48 KHz / 5.1 ch / 768 Kbps (MVO - Позитив)
Аудио 4:Русский / AC3 / 48 KHz / 5.1 ch / 384 Kbps (AVO - Гоблин)
Аудио 5: Английский / AC3 / 48 KHz / 5.1 ch / 448 Кбит/сек

ВНИМАНИЕ ! На встроенных ТВ-плеерах работать не будет!!!
ТВ Samsung в названии которого есть надпись Ultra HD , и LG Ultra HD 800 серии, LG C6P, Xiaomi Mi TV 2 воспроизводят полные стереопары встроенными плеерами
Железные плееры на которых воспроизводятся полные стереопары:Popcorn C-200 , Dune HD Smart D1 , Dune HD DUO , Dune HD Smart H1 , Dune HD Smart B1 , Dune HD Max , Dune HD TV-303D , Dune HD Base 3D, Philips HMP7001, Aura HD, MECOOL BB2
Чтобы изображение было на весь экран в плеере выставляем, если рип 1920х1600 - то выставляем 2.35:1 , если 1920х2160 - то выставляем 16:9
Общее
Уникальный идентификатор : 201343930748485570836692662813837222235 (0x97796E37893EADAD88B87D837FB3E15B)
Полное имя : D:\Terminator 2 Judgment Day.Extended.Rip by SeRoGa00.mkv
Формат : Matroska
Версия формата : Version 2
Размер файла : 19,7 Гбайт
Продолжительность : 2 ч. 36 м.
Общий поток : 18,0 Мбит/сек
Дата кодирования : UTC 2017-12-14 06:40:03
Программа кодирования : mkvmerge v3.4.0 ('Rapunzel') сборка от May 15 2010 09:38:20
Библиотека кодирования : libebml v0.8.0 + libmatroska v0.9.0

Видео
Идентификатор : 1
Формат : AVC
Формат/Информация : Advanced Video Codec
Профиль формата : [email protected]
Параметр CABAC формата : Да
Параметр ReFrames формата : 4 кадра
Идентификатор кодека : V_MPEG4/ISO/AVC
Продолжительность : 2 ч. 36 м.
Битрейт : 13,1 Мбит/сек
Ширина : 1920 пикселей
Высота : 2160 пикселей
Соотношение сторон : 0,889
Частота кадров : 23,976 кадра/сек
Цветовое пространство : YUV
Субдискретизация насыщенности : 4:2:0
Битовая глубина : 8 бит
Тип развёртки : Прогрессивная
Бит/(Пиксели*Кадры) : 0.131
Размер потока : 14,2 Гбайт (72%)
Заголовок : Rip by SeRoGa00
Библиотека кодирования : x264 core 148 r2762 90a61ec
Настройки программы : cabac=1 / ref=4 / deblock=1:-3:-3 / analyse=0x3:0x113 / me=umh / subme=10 / psy=1 / psy_rd=1.00:0.15 / mixed_ref=1 / me_range=24 / chroma_me=1 / trellis=2 / 8x8dct=1 / cqm=0 / deadzone=21,11 / fast_pskip=1 / chroma_qp_offset=-3 / threads=9 / lookahead_threads=2 / sliced_threads=0 / nr=0 / decimate=1 / interlaced=0 / bluray_compat=0 / constrained_intra=0 / bframes=10 / b_pyramid=2 / b_adapt=2 / b_bias=0 / direct=3 / weightb=1 / open_gop=0 / weightp=2 / keyint=250 / keyint_min=23 / scenecut=40 / intra_refresh=0 / rc_lookahead=60 / rc=crf / mbtree=1 / crf=18.0 / qcomp=0.60 / qpmin=10 / qpmax=69 / qpstep=4 / vbv_maxrate=40000 / vbv_bufsize=40000 / crf_max=0.0 / nal_hrd=none / filler=0 / ip_ratio=1.40 / aq=1:1.00
Язык : English
Default : Нет
Forced : Нет

Аудио #1
Идентификатор : 2
Формат : DTS
Формат/Информация : Digital Theater Systems
Идентификатор кодека : A_DTS
Продолжительность : 2 ч. 36 м.
Вид битрейта : Постоянный
Битрейт : 1510 Кбит/сек
Каналы : 6 каналов
Расположение каналов : Front: L C R, Side: L R, LFE
Частота : 48,0 КГц
Битовая глубина : 24 бит
Метод сжатия : С потерями
Размер потока : 1,65 Гбайт (8%)
Заголовок : Kinomania
Язык : Russian
Default : Да
Forced : Нет

Аудио #2
Идентификатор : 3
Формат : DTS
Формат/Информация : Digital Theater Systems
Идентификатор кодека : A_DTS
Продолжительность : 2 ч. 36 м.
Вид битрейта : Постоянный
Битрейт : 1510 Кбит/сек
Каналы : 6 каналов
Расположение каналов : Front: L C R, Side: L R, LFE
Частота : 48,0 КГц
Битовая глубина : 24 бит
Метод сжатия : С потерями
Размер потока : 1,65 Гбайт (8%)
Заголовок : Gavrilov
Язык : Russian
Default : Нет
Forced : Нет

Аудио #3
Идентификатор : 4
Формат : DTS
Формат/Информация : Digital Theater Systems
Идентификатор кодека : A_DTS
Продолжительность : 2 ч. 36 м.
Вид битрейта : Постоянный
Битрейт : 755 Кбит/сек
Каналы : 6 каналов
Расположение каналов : Front: L C R, Side: L R, LFE
Частота : 48,0 КГц
Битовая глубина : 24 бит
Метод сжатия : С потерями
Размер потока : 843 Мбайт (4%)
Заголовок : Positiv
Язык : Russian
Default : Нет
Forced : Нет

Аудио #4
Идентификатор : 5
Формат : AC-3
Формат/Информация : Audio Coding 3
Расширение режима : CM (complete main)
Параметр Endianness формата : Big
Идентификатор кодека : A_AC3
Продолжительность : 2 ч. 36 м.
Вид битрейта : Постоянный
Битрейт : 384 Кбит/сек
Каналы : 6 каналов
Расположение каналов : Front: L C R, Side: L R, LFE
Частота : 48,0 КГц
Битовая глубина : 16 бит
Метод сжатия : С потерями
Размер потока : 429 Мбайт (2%)
Заголовок : Goblin
Язык : Russian
Default : Нет
Forced : Нет

Аудио #5
Идентификатор : 6
Формат : AC-3
Формат/Информация : Audio Coding 3
Расширение режима : CM (complete main)
Параметр Endianness формата : Big
Идентификатор кодека : A_AC3
Продолжительность : 2 ч. 36 м.
Вид битрейта : Постоянный
Битрейт : 448 Кбит/сек
Каналы : 6 каналов
Расположение каналов : Front: L C R, Side: L R, LFE
Частота : 48,0 КГц
Битовая глубина : 16 бит
Метод сжатия : С потерями
Размер потока : 500 Мбайт (2%)
Заголовок : Original
Язык : English
Default : Нет
Forced : Нет


Трекер:  [ 04-Фев-2018 13:01 ]

  

Скачать .torrent

Размер .torrent файла 98 KB


Размер: 19.66 GB
Хэш (hash) релиза: 8af214ae65f91ec0d4272e209d9cb0c0af8fb4b9
Подписка на обновления:

Торренты, похожие на Терминатор 2: Судный день в 3Д Terminator 2: Judgment Day 3D скачать торрент

Форум Название Автор Размер S L Добавлен
3D Фильмы, кино ·· Терминатор 2: Судный день в 3Д / Terminator 2: Judgment Day 3D (Джеймс Кэмерон / James Cameron) [1991, Фантастика, Боевик, Триллер, BDrip, 1080p] OverUnder / Вертикальная стереопара Galfimbul 1416947299013.2 GB 2 0 1517744136

14:35

4-Фев-18

3D Фильмы, кино ·· Терминатор 2: Судный день в 3Д / Terminator 2: Judgment Day 3D (Джеймс Кэмерон / James Cameron) [1991, Фантастика, Боевик, Триллер, BDremux, 1080p] BD3D [Re-Encode][Специальная расширенная версия / Extended Special Edition] Galfimbul 4296985804840.02 GB 0 0 1517744126

14:35

4-Фев-18

3D Фильмы, кино ·· Терминатор 2: Судный день в 3Д / Terminator 2: Judgment Day 3D (Джеймс Кэмерон / James Cameron) [1991 (2017), Фантастика, Боевик, Триллер, BDrip] (Театральная версия / Theatrical Version) Half OverUnder / Вертикальная анаморфная стереопара Galfimbul 1815825859916.91 GB 0 0 1517744112

14:35

4-Фев-18

3D Фильмы, кино ·· Терминатор 2: Судный день в 3Д / Terminator 2: Judgment Day 3D (Джеймс Кэмерон / James Cameron) [1991 (2017), Фантастика, Боевик, BDrip] [Расширенная специальная версия / Extended Special Edition] Half OverUnder / Вертикальная анаморфная стереопара Galfimbul 2102939526419.59 GB 0 0 1517744098

14:34

4-Фев-18

Еще никто не оставлял запись к записи скачать торрент Терминатор 2: Судный день в 3Д Terminator 2: Judgment Day 3D . Будь первым!

!Обратная связь