Nakrob Ta Pisat | Plats français | Peter Chong

Скачать через торрент Металлический шторм: Крах Джаред-Сина в 3Д Metalstorm: The Destruction of Jared-Syn 3D Фильм бесплатно в хорошем качестве torrent

Скачивайте на UnionPeer.org фильмы через торрент без регистрации. Новинки кино в хорошем качестве через торрент. На UnionPeer.org можно скачать через торрент фильмы 2014 и 2015 годов. Самые новые фильмы.

Скачать торрент Металлический шторм: Крах Джаред-Сина в 3Д Metalstorm: The Destruction of Jared-Syn 3D бесплатно через .torrent фильм мультфильм сериал

Статистика раздачи
Размер:  7.26 GB   |    Зарегистрирован:  5 месяцев 11 дней   |    .torrent скачан:  28 раз   |   
Раздают:  1  
   
загрузка...
 
Автор Сообщение

Galfimbul

avatar Galfimbul


Металлический шторм: Крах Джаред-Сина
Metalstorm: The Destruction of Jared-Syn
Год выпуска: 1983
Страна: США (Universal Pictures, Albert Band International Productions Inc.)
Жанр: Фантастика, Боевик, Мелодрама, Приключения
Продолжительность: 01:23:27

Перевод: Любительский одноголосый закадровый (Noname)

Режиссер: Чарльз Бэнд / Charles Band
В ролях: Джеффри Байрон (Dogen), Майкл Престон (Jared-Syn), Тим Томерсон (Rhodes), Келли Престон (Dhyana), Ричард Молл (Hurok), Р. Дэвид Смит (Baal), Ларри Пеннелл (Alx), Марти Загон (Zax), Мики Фокс (Poker Annie), Уильям Джонс (Baal's Lieutenant), Уинстон Джонс (Chimera)
Описание: На месте исчезнувшего города Сэт образовалась горная пустыня с пещерами. В одних живут кочевники, в других — добываются кристаллы чудодейственной силы. Путем обмана предводителем кочевников становится авантюрист из богатого рода Джаред-Син. Он завладел большим кристаллом — аккумулятором жизненной энергии и «заряжает» его, убивая людей или превращает их в рабов-мутантов. Став властелином пустыни, он уничтожает всех, кто появляется на его территории. Из Вашингтона на поиски и для уничтожения Джаред-Сина направляется рейнджер Доджен. Очаровательная Дайана и бывший сыщик Роудс помогают Доджену проникнуть туда, где раньше был город Сэт и победить Джаред-Сина.
Доп. инфо: Чтобы не пенять на озвучку, слушайте сэмпл!
3D глубокое.
Премьера: 19 августа 1983
. .
Качество: BDRip (by Ash61)
Контейнер: MKV
Формат 3D: Half OverUnder / Вертикальная анаморфная стереопара
Порядок ракурсов: левый ракурс первый
Видео: AVC / 1920х1080p / 23,976 fps / 10.9 Mbps

Аудио:
#1 - Русский / AC3 / 48 KHz / 5.1 ch / 640 Kbps (VO)
#2 - Английский / AC3 / 48 KHz / 5.1 ch / 640 Kbps (Original - BD 3D)

Субтитры (внешние SRT UTF-8):
#1 - Русские Полные (перевод любительский)
#2 - English Full (BD 3D)
#3 - English SDH (BD 3D)
General
Unique ID : 175306409186422811190726115566902740100 (0x83E2C94A4500F05CA9C86E8D86368484)
Complete name : D:\Metalstorm(1983)3D-halfOU(Ash61)VO\Metalstorm(1983)3D-halfOU(Ash61)VO.mkv
Format : Matroska
Format version : Version 2
File size : 7.26 GiB
Duration : 1h 23mn
Overall bit rate : 12.4 Mbps
Movie name : Металлический шторм: Крах Джаред-Сина / Metalstorm: The Destruction of Jared-Syn (1983) в 3Д
Encoded date : UTC 2017-12-16 12:11:17
Writing application : mkvmerge v5.8.0 ('No Sleep / Pillow') built on Sep 2 2012 15:37:04
Writing library : libebml v1.2.3 + libmatroska v1.3.0

Video
ID : 1
Format : AVC
Format/Info : Advanced Video Codec
Format profile : [email protected]
Format settings, CABAC : Yes
Format settings, ReFrames : 4 frames
Codec ID : V_MPEG4/ISO/AVC
Duration : 1h 23mn
Bit rate : 10.9 Mbps
Width : 1 920 pixels
Height : 1 080 pixels
Display aspect ratio : 16:9
Frame rate mode : Constant
Frame rate : 23.976 (24000/1001) fps
Color space : YUV
Chroma subsampling : 4:2:0
Bit depth : 8 bits
Scan type : Progressive
Bits/(Pixel*Frame) : 0.220
Stream size : 6.37 GiB (88%)
Title : BDRip by Ash61
Writing library : x264 core 146 r2538 121396c
Encoding settings : cabac=1 / ref=4 / deblock=1:-3:-3 / analyse=0x3:0x113 / me=umh / subme=10 / psy=1 / psy_rd=1.00:0.00 / mixed_ref=1 / me_range=32 / chroma_me=1 / trellis=2 / 8x8dct=1 / cqm=0 / deadzone=21,11 / fast_pskip=1 / chroma_qp_offset=-2 / threads=12 / lookahead_threads=3 / sliced_threads=0 / nr=0 / decimate=1 / interlaced=0 / bluray_compat=0 / constrained_intra=0 / bframes=12 / b_pyramid=2 / b_adapt=2 / b_bias=0 / direct=3 / weightb=1 / open_gop=0 / weightp=2 / keyint=250 / keyint_min=23 / scenecut=40 / intra_refresh=0 / rc_lookahead=60 / rc=crf / mbtree=1 / crf=17.0 / qcomp=0.70 / qpmin=0 / qpmax=69 / qpstep=4 / vbv_maxrate=40000 / vbv_bufsize=30000 / crf_max=0.0 / nal_hrd=none / filler=0 / frame-packing=4 / ip_ratio=1.40 / aq=1:0.70
Language : English
Default : Yes
Forced : No

Audio #1
ID : 2
Format : AC-3
Format/Info : Audio Coding 3
Mode extension : CM (complete main)
Format settings, Endianness : Big
Codec ID : A_AC3
Duration : 1h 23mn
Bit rate mode : Constant
Bit rate : 640 Kbps
Channel(s) : 6 channels
Channel positions : Front: L C R, Side: L R, LFE
Sampling rate : 48.0 KHz
Frame rate : 31.250 fps (1536 spf)
Compression mode : Lossy
Stream size : 382 MiB (5%)
Title : Любительский одноголосый закадровый (Noname)
Language : Russian
Default : Yes
Forced : No

Audio #2
ID : 3
Format : AC-3
Format/Info : Audio Coding 3
Mode extension : CM (complete main)
Format settings, Endianness : Big
Codec ID : A_AC3
Duration : 1h 23mn
Bit rate mode : Constant
Bit rate : 640 Kbps
Channel(s) : 6 channels
Channel positions : Front: L C R, Side: L R, LFE
Sampling rate : 48.0 KHz
Frame rate : 31.250 fps (1536 spf)
Compression mode : Lossy
Stream size : 382 MiB (5%)
Title : Original - BD 3D
Language : English
Default : No
Forced : No

Menu
00:00:00.000 : :1
00:08:19.416 : :2
00:16:00.334 : :3
00:23:22.818 : :4
00:27:50.377 : :5
00:34:18.473 : :6
00:41:24.273 : :7
00:48:47.258 : :8
00:55:28.033 : :9
01:03:41.359 : :10
01:11:20.693 : :11
01:15:09.422 : :12


Трекер:  [ 04-Фев-2018 13:01 ]

  

Скачать .torrent

Размер .torrent файла 37 KB


Размер: 7.26 GB
Хэш (hash) релиза: e1baa62e24b23a91a174094bfddc5fdcec82f13c
Подписка на обновления:

Еще никто не оставлял запись к записи скачать торрент Металлический шторм: Крах Джаред-Сина в 3Д Metalstorm: The Destruction of Jared-Syn 3D . Будь первым!

!Обратная связь