Forbidden Love57 | Mangas VF | Watch Movie

Скачать через торрент Оружие ярости в 3Д Gun Fury 3D Фильм бесплатно в хорошем качестве torrent

Скачивайте на UnionPeer.org фильмы через торрент без регистрации. Новинки кино в хорошем качестве через торрент. На UnionPeer.org можно скачать через торрент фильмы 2014 и 2015 годов. Самые новые фильмы.

Скачать торрент Оружие ярости в 3Д Gun Fury 3D бесплатно через .torrent фильм мультфильм сериал

Статистика раздачи
Размер:  7.82 GB   |    Зарегистрирован:  7 месяцев   |    .torrent скачан:  36 раз   |   
Раздают:  1  
   
загрузка...
 
Автор Сообщение

Galfimbul

avatar Galfimbul


Оружие ярости
Gun Fury
Год выпуска: 1953
Страна: США (Columbia Pictures)
Жанр: Боевик, Мелодрама, Криминал, Приключения, Вестерн
Продолжительность: 01:22:03

Перевод: Авторский одноголосый закадровый - Сергей Кузнецов

Режиссер: Рауль Уолш / Raoul Walsh
В ролях: Рок Хадсон (Ben Warren), Донна Рид (Jennifer Ballard), Филип Кэри (Frank Slayton), Роберта Хэйнс (Estella Morales), Лео Гордон (Tom 'Jess' Burgess), Ли Марвин (Blinky), Невилл Брэнд (Brazos), Рэй Томас (Doc), Боб Херрон (Curly Jordan), Фил Роулинз (Jim Morse), Форрест Льюис (Weatherby), Альма Бельтран (Second Mexican Girl)



Описание: Простая поездка в дилижансе для мисс Гоман и её жениха Билла обернулась полной опасностей и приключенийи ездой по прерии в сопровождении двух бандитов, имеющих свои виды на ценный багаж и на саму мисс Гоман. Три трупа — не повод чтобы начинать войну, рассуждают местные пастухи, но Билли так не считает. Он выручает любимую и возвращает золото штата, совершив при этом немало героических подвигов.



Премьера (мир): 9 октября 1953

. .



Качество: BDRip (by Ash61)
Контейнер: MKV
Формат 3D: Half OverUnder / Вертикальная анаморфная стереопара
Порядок ракурсов: левый ракурс первый
Видео: AVC / 1920х1080p / 23,976 fps / 13.0 Mbps

Аудио:
#1 - Русский / AC3 / 48 KHz / 2 ch / 192 Kbps (AVO - С. Кузнецов) [моно]
#2 - Английский / AC3 / 48 KHz / 2 ch / 448 Kbps (Original - BD 3D) [моно]

Субтитры (внешние SRT UTF-8): English SDH (BD 3D)
General
Unique ID : 171963145243112805190673569174253259851 (0x815EE5A6BCF7513E81CAE1E6945CCC4B)
Complete name : D:\GunFury(1953)3D-halfOU(Ash61)VO\GunFury(1953)3D-halfOU(Ash61)VO.mkv
Format : Matroska
Format version : Version 2
File size : 7.82 GiB
Duration : 1h 22mn
Overall bit rate : 13.6 Mbps
Movie name : Оружие ярости / Gun Fury (1953) in 3D
Encoded date : UTC 2017-12-31 09:21:10
Writing application : mkvmerge v5.8.0 ('No Sleep / Pillow') built on Sep 2 2012 15:37:04
Writing library : libebml v1.2.3 + libmatroska v1.3.0

Video
ID : 1
Format : AVC
Format/Info : Advanced Video Codec
Format profile : [email protected]
Format settings, CABAC : Yes
Format settings, ReFrames : 4 frames
Codec ID : V_MPEG4/ISO/AVC
Duration : 1h 22mn
Bit rate : 13.0 Mbps
Width : 1 920 pixels
Height : 1 080 pixels
Display aspect ratio : 16:9
Frame rate mode : Constant
Frame rate : 23.976 (24000/1001) fps
Color space : YUV
Chroma subsampling : 4:2:0
Bit depth : 8 bits
Scan type : Progressive
Bits/(Pixel*Frame) : 0.261
Stream size : 7.30 GiB (93%)
Title : BDRip by Ash61
Writing library : x264 core 146 r2538 121396c
Encoding settings : cabac=1 / ref=4 / deblock=1:-3:-3 / analyse=0x3:0x113 / me=umh / subme=10 / psy=1 / psy_rd=1.00:0.00 / mixed_ref=1 / me_range=32 / chroma_me=1 / trellis=2 / 8x8dct=1 / cqm=0 / deadzone=21,11 / fast_pskip=0 / chroma_qp_offset=-2 / threads=12 / lookahead_threads=3 / sliced_threads=0 / nr=0 / decimate=0 / interlaced=0 / bluray_compat=0 / constrained_intra=0 / bframes=12 / b_pyramid=2 / b_adapt=2 / b_bias=0 / direct=3 / weightb=1 / open_gop=0 / weightp=2 / keyint=250 / keyint_min=23 / scenecut=40 / intra_refresh=0 / rc_lookahead=60 / rc=2pass / mbtree=0 / bitrate=13000 / ratetol=1.0 / qcomp=0.70 / qpmin=0 / qpmax=69 / qpstep=4 / cplxblur=20.0 / qblur=0.5 / vbv_maxrate=40000 / vbv_bufsize=30000 / nal_hrd=none / filler=0 / frame-packing=4 / ip_ratio=1.40 / pb_ratio=1.30 / aq=1:0.70
Language : English
Default : Yes
Forced : No

Audio #1
ID : 2
Format : AC-3
Format/Info : Audio Coding 3
Mode extension : CM (complete main)
Format settings, Endianness : Big
Codec ID : A_AC3
Duration : 1h 22mn
Bit rate mode : Constant
Bit rate : 192 Kbps
Channel(s) : 2 channels
Channel positions : Front: L R
Sampling rate : 48.0 KHz
Frame rate : 31.250 fps (1536 spf)
Compression mode : Lossy
Stream size : 113 MiB (1%)
Title : Одноголосый закадровый - Сергей Кузнецов (моно) [редакция Ash61]
Language : Russian
Default : Yes
Forced : No

Audio #2
ID : 3
Format : AC-3
Format/Info : Audio Coding 3
Mode extension : CM (complete main)
Format settings, Endianness : Big
Codec ID : A_AC3
Duration : 1h 22mn
Bit rate mode : Constant
Bit rate : 448 Kbps
Channel(s) : 2 channels
Channel positions : Front: L R
Sampling rate : 48.0 KHz
Frame rate : 31.250 fps (1536 spf)
Compression mode : Lossy
Stream size : 263 MiB (3%)
Title : Original - BD 3D
Language : English
Default : No
Forced : No

Menu
00:00:00.000 : :1
00:01:54.656 : :2
00:07:34.911 : :3
00:10:30.129 : :4
00:12:53.230 : :5
00:18:22.643 : :6
00:19:12.942 : :7
00:23:20.816 : :8
00:27:33.067 : :9
00:30:28.367 : :10
00:33:10.320 : :11
00:36:18.800 : :12
00:40:54.284 : :13
00:45:06.202 : :14
00:49:17.954 : :15
00:51:52.275 : :16
00:55:34.331 : :17
00:57:32.030 : :18
01:01:53.626 : :19
01:04:04.965 : :20
01:07:24.581 : :21
01:11:20.943 : :22
01:14:47.231 : :23
01:17:39.070 : :24


Трекер:  [ 04-Фев-2018 13:01 ]

  

Скачать .torrent

Размер .torrent файла 39 KB


Размер: 7.82 GB
Хэш (hash) релиза: e5ca901b2127e0cfd5d0a82a2d62d227a21c5b4a
Подписка на обновления:

Еще никто не оставлял запись к записи скачать торрент Оружие ярости в 3Д Gun Fury 3D . Будь первым!

!Обратная связь