Franz Ferdinand Sparks (FFS) | Terry Gill | Allegiance (2015) - Saison 1

Скачать через торрент Страна самоцветов Houseki no Kuni Фильм бесплатно в хорошем качестве torrent

Скачивайте на UnionPeer.org фильмы через торрент без регистрации. Новинки кино в хорошем качестве через торрент. На UnionPeer.org можно скачать через торрент фильмы 2014 и 2015 годов. Самые новые фильмы.

Скачать торрент Страна самоцветов Houseki no Kuni бесплатно через .torrent фильм мультфильм сериал

Статистика раздачи
Размер:  1.32 GB   |    Зарегистрирован:  4 месяца 14 дней   |    .torrent скачан:  26 раз   |   
Раздают:  1  
   
загрузка...
 
Автор Сообщение

Galfimbul

avatar Galfimbul


Страна самоцветов
Оригинальное название: 宝石の国
Английское название: Land of the Lustrous
Период трансляции: c 07.10.2017 по 23.12.2017
Страна: Япония
Жанр: приключения, фэнтези
Продолжительность: 12 эп. по ~ 24 мин
Режиссер: Кёгоку Такахико
Студия:
Перевод: Субтитры от [YakuSub Studio]
Переводчик/Перевод песен/Оформление: Nika_Elrik
Редактор: Arashi-sama
Описание: Кто бы мог подумать, что в далёком будущем население Земли всё-таки обретёт вечную жизнь, бессмертие. Но только, по своей сути, эти бессмертные существа будут напоминать людей внешне, но не являться ими в действительности. Вместо человеческой цивилизации развернётся цивилизация Самоцветов. Но на соседних планетах и спутниках жизнь тоже начала кипеть ключом. Например, на Луне поселился Лунный народец, имеющий весьма воинственные взгляды.

Так, Самоцветам всё время приходится защищаться от этих Лунатиков, которые спят и видят, как бы им завоевать новых жителей Земли. Лунный народ постоянно вторгается на планету и устраивает там нешуточный переполох. Поэтому, каждой из представительниц Самоцветов необходимо принимать участие в спасении своего народа. Даже если это получается не очень хорошо, как например у 300-летней Фосфофиллит, хрупкой и нежной самоцветки. Битвы - это явно не её стезя. Но во имя общего блага важен каждый вклад, поэтому ей впервые в жизни доверяют выполнить работу редактора исторического журнала.
01 - Phosphophyllite
02 - Diamond
03 - Metamorphose
04 - Soul - Flesh - Bone
05 - Return
06 - First Battle
07 - Hibernation
08 - Antarcticite
09 - Spring
10 - Shiro
11 - Secrets
12 - New Work

Качество видео: WEBRip
Формат: MP4
Видео кодек: H.264
Аудио кодек: AAC
Видео: MPEG4 Video (H264) 480x272 23.976fps 511kbps
Аудио: AAC 48000Hz stereo 127kbps
General
Complete name : C:\Documents and Settings\BK201\Рабочий стол\Houseki no Kuni\Houseki no Kuni - 01.mp4
Format : MPEG-4
Format profile : Base Media
Codec ID : isom (isom/avc1)
File size : 111 MiB
Duration : 24 min
Overall bit rate mode : Variable
Overall bit rate : 643 kb/s
Encoded date : UTC 2018-01-29 12:17:54
Tagged date : UTC 2018-01-29 12:17:54

Video
ID : 1
Format : AVC
Format/Info : Advanced Video Codec
Format profile : [email protected]
Format settings, CABAC : Yes
Format settings, ReFrames : 2 frames
Codec ID : avc1
Codec ID/Info : Advanced Video Coding
Duration : 24 min
Bit rate : 512 kb/s
Maximum bit rate : 2 682 kb/s
Width : 480 pixels
Height : 272 pixels
Display aspect ratio : 16:9
Frame rate mode : Constant
Frame rate : 23.976 (24000/1001) FPS
Color space : YUV
Chroma subsampling : 4:2:0
Bit depth : 8 bits
Scan type : Progressive
Bits/(Pixel*Frame) : 0.164
Stream size : 88.5 MiB (80%)
Writing library : x264 core 65 r999kMod cc51047
Encoding settings : cabac=1 / ref=2 / deblock=1:-2:-1 / analyse=0x1:0x131 / me=umh / subme=7 / psy_rd=1.0:0.0 / mixed_ref=1 / me_range=16 / chroma_me=1 / trellis=2 / 8x8dct=0 / cqm=0 / deadzone=21,11 / chroma_qp_offset=-2 / threads=2 / thread_queue=2 / nr=0 / decimate=0 / mbaff=0 / bframes=3 / b_pyramid=0 / b_adapt=1 / b_bias=0 / direct=3 / wpredb=1 / keyint=250 / keyint_min=25 / scenecut=40(pre) / rc=2pass / bitrate=512 / ratetol=1.0 / qcomp=0.60 / qpmin=10 / qpmax=51 / qpstep=4 / cplxblur=20.0 / qblur=0.5 / ip_ratio=1.40 / pb_ratio=1.30 / aq=1:1.00
Encoded date : UTC 2018-01-29 12:17:54
Tagged date : UTC 2018-01-29 12:17:59

Audio
ID : 2
Format : AAC
Format/Info : Advanced Audio Codec
Format profile : LC
Codec ID : 40
Duration : 24 min
Bit rate mode : Variable
Bit rate : 128 kb/s
Maximum bit rate : 191 kb/s
Channel(s) : 2 channels
Channel positions : Front: L R
Sampling rate : 48.0 kHz
Frame rate : 46.875 FPS (1024 spf)
Compression mode : Lossy
Stream size : 22.1 MiB (20%)
Encoded date : UTC 2018-01-29 12:17:58
Tagged date : UTC 2018-01-29 12:17:59


Трекер:  [ 03-Фев-2018 20:12 ]

  

Скачать .torrent

Размер .torrent файла 15 KB


Размер: 1.32 GB
Хэш (hash) релиза: b3eb4a12b00947d0c0ca0091c6b0ade0cdd4527b
Подписка на обновления:

Еще никто не оставлял запись к записи скачать торрент Страна самоцветов Houseki no Kuni . Будь первым!

!Обратная связь