Majimoji Rurumo Sub Indo Batch Eps 1-12 Lengkap | Abracadabra | Kiniro No Corda: Blue♪Sky

Скачать через торрент Матильда Фильм бесплатно в хорошем качестве torrent

Скачивайте на UnionPeer.org фильмы через торрент без регистрации. Новинки кино в хорошем качестве через торрент. На UnionPeer.org можно скачать через торрент фильмы 2014 и 2015 годов. Самые новые фильмы.

Скачать торрент Матильда бесплатно через .torrent фильм мультфильм сериал

Статистика раздачи
Размер:  4.28 GB   |    Зарегистрирован:  7 месяцев   |    .torrent скачан:  89 раз   |   
Раздают:  1  
   
загрузка...
 
Автор Сообщение

Galfimbul

avatar Galfimbul


Матильда

Год выхода: 2017
Жанр: Драма, история
Режиссер: Алексей Учитель
В ролях: Михалина Ольшанска, Ларс Айдингер, Луиза Вольфрам, Данила Козловский, Ингеборга Дапкунайте, Сергей Гармаш, Евгений Миронов, Григорий Добрынин, Галина Тюнина, Виталий Коваленко, Виталий Кищенко и др.

О фильме: На выпускном спектакле Императорского театрального училища Николай впервые видит Матильду Кшесинскую. Несмотря на козни соперницы, юная балерина блистательно исполняет свою партию и срывает бурные аплодисменты, а наследник престола не на шутку увлекается дерзкой танцовщицей. Между ними вспыхивает сильное чувство, но приходит день, когда нужно принимать судьбоносное решение, от которого зависит ход истории. Последний русский император и балерина, утвердившая славу русского балета. Любовь, ставшая легендой, в исторической мелодраме Алексея Учителя.

Выпущено: ТПО "Рок"
Продолжительность: 01:48:38
Перевод: Не требуется
Файл
Кодек: AVC
Качество: BDRip 720p
Видео: 1280x536, ~ 5640 Кбит/с, 24,000 к/c
Звук: AC3, 6.0, 48 kHz, 640 kbps
Общее
Уникальный идентификатор : 201316949866098674991898992055191868098 (0x97743BF4EC5AAA2BAB571B33A8F812C2)
Полное имя : E:MatildaMATILDA.720p.mkv
Формат : Matroska
Версия формата : Version 4 / Version 2
Размер файла : 4,28 Гбайт
Продолжительность : 1 ч. 48 м.
Режим общего битрейта : Переменный
Общий поток : 5640 Кбит/сек
Дата кодирования : UTC 2018-01-30 15:45:01
Программа кодирования : mkvmerge v9.5.0 ('Quiet Fire') 64bit
Библиотека кодирования : libebml v1.3.4 + libmatroska v1.4.5

Видео
Идентификатор : 1
Формат : AVC
Формат/Информация : Advanced Video Codec
Профиль формата : [email protected]
Настройки формата : CABAC / 3 Ref Frames
Параметр CABAC формата : Да
Параметр RefFrames формата : 3 кадра
Параметр GOP формата : M=3, N=24
Идентификатор кодека : V_MPEG4/ISO/AVC
Продолжительность : 1 ч. 48 м.
Вид битрейта : Переменный
Битрейт : 4998 Кбит/сек
Максимальный битрейт : 10000 Кбит/сек
Ширина : 1280 пикселей
Высота : 536 пикселей
Соотношение сторон : 2,40:1
Режим частоты кадров : Постоянный
Частота кадров : 24,000 кадра/сек
Стандарт вещания : PAL
Цветовое пространство : YUV
Субдискретизация насыщенности : 4:2:0
Битовая глубина : 8 бит
Тип развёртки : Прогрессивная
Бит/(Пиксели*Кадры) : 0.304
Размер потока : 3,79 Гбайт (89%)
Язык : English
Default : Да
Forced : Нет
Цветовой диапазон : Limited
Основные цвета : BT.601 NTSC
Характеристики трансфера : BT.601
Коэффициенты матрицы : BT.601

Аудио
Идентификатор : 2
Формат : AC-3
Формат/Информация : Audio Coding 3
Параметр Endianness формата : Big
Идентификатор кодека : A_AC3
Продолжительность : 1 ч. 48 м.
Вид битрейта : Постоянный
Битрейт : 640 Кбит/сек
Каналы : 6 каналов
Расположение каналов : Front: L C R, Side: L R, LFE
Частота : 48,0 КГц
Частота кадров : 31,250 кадров/сек (1536 SPF)
Битовая глубина : 16 бит
Метод сжатия : С потерями
Размер потока : 497 Мбайт (11%)
Default : Да
Forced : Нет
Источник http://arutor.org

Трекер:  [ 31-Янв-2018 15:10 ]

  

Скачать .torrent

Размер .torrent файла 11 KB


Размер: 4.28 GB
Хэш (hash) релиза: 5d2ab39d2971e3e5695ecb41a6f981e5466d4af2
Подписка на обновления:

Торренты, похожие на Матильда скачать торрент

Форум Название Автор Размер S L Добавлен
Зарубежные фильмы до 2016 ·· К Матильде / По направлению к Матильде / Vers Mathilde / Towards Mathilde (Клер Дени / Claire Denis) [2005, Франция, документальный, DVD9 (Custom)] Original Fr + Sub Rus (daft-digger, alex-kin), Eng, Esp, Pt Galfimbul 60560896005.64 GB 0 0 1425236224

21:57

1-Мар-15

Трейлеры и дополнительные материалы ·· Матильда (Алексей Учитель) [2017, Драма | История | Триллер, BDRip 720p] фильм о фильме Galfimbul 17440963191.62 GB 0 0 1519032892

12:34

19-Фев-18

Российские фильмы 2016-2018 (Новинки русского кино) ·· Матильда (Алексей Учитель) [2017 г., Драма, история, триллер, BDRip 1080p] Лицензия Galfimbul 77348502067.2 GB 0 0 1517631037

07:10

3-Фев-18

Российские фильмы 2016-2018 (Новинки русского кино) ·· Матильда (Алексей Учитель) [2017 г., Драма, история, триллер, BDRip 720p] Лицензия Galfimbul 49713678574.63 GB 0 0 1517626235

05:50

3-Фев-18

Российские фильмы 2016-2018 (Новинки русского кино) ·· Матильда (Алексей Учитель) [2017 г., Драма, история, триллер, BDRemux 1080p] Лицензия Galfimbul 1848682938717.22 GB 0 0 1517599220

22:20

2-Фев-18

Российские фильмы 2016-2018 (Новинки русского кино) ·· Матильда (Алексей Учитель) [2017 г., Драма, история, триллер, Blu-ray 1080p] Лицензия Galfimbul 2958758011127.56 GB 0 0 1517587229

19:00

2-Фев-18

Российские фильмы 2016-2018 (Новинки русского кино) ·· Матильда (Алексей Учитель) [2017 г., Драма, история, триллер, HDRip] | Лицензия Galfimbul 14676520961.37 GB 0 0 1517395899

13:51

31-Янв-18

Российские фильмы 2016-2018 (Новинки русского кино) ·· Матильда (Алексей Учитель) [2017, драма, история, триллер, BDRip 1080p] [RUS] [Оригинал] [Лицензия] Galfimbul 1188414513911.07 GB 0 0 1517395850

13:50

31-Янв-18

Российские фильмы 2016-2018 (Новинки русского кино) ·· Матильда (Алексей Учитель) [2017, Россия, драма, история, триллер, WEB-DL 720p] iTunes Galfimbul 36142869683.37 GB 0 0 1516023619

16:40

15-Янв-18

Российские фильмы до 2016 ·· Матильда (Алексей Учитель) [2017, Россия, драма, история, триллер, WEB-DL 720p] Original Rus Galfimbul 36142869683.37 GB 0 0 1515578985

13:09

10-Янв-18

Российские фильмы до 2016 ·· Матильда (Алексей Учитель) [2017, Россия, драма, история, триллер, WEB-DL 1080p] Original Rus Galfimbul 40160871923.74 GB 0 0 1514322469

00:07

27-Дек-17

Российские фильмы до 2016 ·· Матильда (Алексей Учитель) [2017, Россия, драма, история, триллер, WEB-DLRip] Galfimbul 780453888744 MB 0 0 1512491556

19:32

5-Дек-17

Российские фильмы до 2016 ·· Матильда (Алексей Учитель) [2017, драма, история, триллер, WEB-DLRip-AVC] iTunes Galfimbul 15628505891.46 GB 0 0 1512392337

15:58

4-Дек-17

Российские фильмы до 2016 ·· Матильда (Алексей Учитель) [2017, Россия, драма, история, триллер, WEB-DLRip] Galfimbul 15681187841.46 GB 0 0 1512361831

07:30

4-Дек-17

Российские фильмы 2016-2018 (Новинки русского кино) ·· Матильда (Алексей Учитель) [2017 г., Драма, История, Триллер, WEB-DLRip] iTunes Galfimbul 15684526081.46 GB 0 0 1512341422

01:50

4-Дек-17

Российские фильмы 2016-2018 (Новинки русского кино) ·· Матильда (Алексей Учитель) [2017 г., Драма, История, Триллер, WEB-DL 1080p] iTunes Galfimbul 40160871923.74 GB 0 0 1512339017

01:10

4-Дек-17

Документальные фильмы и телепередачи ·· Оболганный Государь / Ложь Матильды (Сергий Алиев) [2017, документальный, история, WEBRip 1080p] Galfimbul 49008428494.56 GB 0 0 1511577821

05:43

25-Ноя-17

Российские фильмы 2016-2018 (Новинки русского кино) ·· Матильда (Алексей Учитель) [2017 г., Драма, История, Триллер, TS 720p] Galfimbul 29951883092.79 GB 0 0 1509191544

14:52

28-Окт-17

Документальные фильмы и телепередачи ·· Другая Матильда. Видеообращение Владислава Москалева (1-3 части) (Владислав Москалев) [2017, документальный, WEBRip 1080p] Galfimbul 15132314101.41 GB 0 0 1508640160

05:42

22-Окт-17

Еще никто не оставлял запись к записи скачать торрент Матильда . Будь первым!

!Обратная связь