Programming | Eps6 Kiss Me First - Season 1 (2018) | Most Rated in Card

Скачать через торрент Новогодний переполох Фильм бесплатно в хорошем качестве torrent

Скачивайте на UnionPeer.org фильмы через торрент без регистрации. Новинки кино в хорошем качестве через торрент. На UnionPeer.org можно скачать через торрент фильмы 2014 и 2015 годов. Самые новые фильмы.

Скачать торрент Новогодний переполох бесплатно через .torrent фильм мультфильм сериал

Статистика раздачи
Размер:  2.47 GB   |    Зарегистрирован:  7 месяцев   |    .torrent скачан:  81 раз   |   
Раздают:  1  
   
загрузка...
 
Автор Сообщение

Galfimbul

avatar Galfimbul


Новогодний переполох

«Битва за наследство началась»
Год выпуска: 2017
Страна: Россия
Жанр: Комедия, семейный
Продолжительность: 01:20:33
Перевод: Не требуется (русский)
Cубтитры: Нет
В ролях:Владимир Меньшов, Константин Крюков, Анастасия Макеева, Ян Цапник, Инга Оболдина, Иван Пышненко, Екатерина Гордиенко, Эрик Тевосов, Мария Вэй, Ренат Мухамбаев
Режиссёр: Кирилл Папакуль
Описание: Наверняка вы давно не играли в снежки... А в крокодила? Как ни странно, но именно этим вынуждены заниматься обитатели усадьбы Морозовых, потому что на кону отцовское наследство. И в этой нешуточной борьбе в ход идут любые средства. А средний сын Дима, неисправимый авантюрист, даже умудрился привезти с собой фиктивную семью. Только вот глава семейства, своенравный отставной генерал Георгий Иванович Морозов, даже не подозревает, что далеко не любовь к семейным традициям привела в дом всех членов семьи.

Качество видео: WEB-DL 720p
Формат видео: MKV
Видео кодек: AVC
Аудио кодек: AC3
Видео: 1280x536 (2.40:1), 25 fps, ~3920 kbps avg, 0.305 bit/pixel
Аудио: 48 kHz, AC3, 6ch, ~384 kbps
General
Unique ID : 240607669223429255670627235875563212622 (0xB50359FBF28879EF87D17E219F6B8F4E)
Complete name : E:\torrents.by\NoVoGodniy.PizdeC.2O17.O.WEB-DL.72Op.mkv
Format : Matroska
Format version : Version 2
File size : 2.47 GiB
Duration : 1 h 20 min
Overall bit rate : 4 391 kb/s
Encoded date : UTC 2018-01-29 21:04:01
Writing application : mkvmerge v8.3.0 ('Over the Horizon') 64bit
Writing library : libebml v1.3.1 + libmatroska v1.4.2

Video
ID : 1
Format : AVC
Format/Info : Advanced Video Codec
Format profile : <a href="/cdn-cgi/l/email-protection" class="__cf_email__" data-cfemail="b2ffd3dbdcf2fe819c83">[email protected]</a>
Format settings : 2 Ref Frames
Format settings, CABAC : No
Format settings, ReFrames : 2 frames
Codec ID : V_MPEG4/ISO/AVC
Duration : 1 h 20 min
Bit rate : 3 920 kb/s
Width : 1280 pixels
Height : 536 pixels
Display aspect ratio : 2.40:1
Frame rate mode : Constant
Frame rate : 25.000 FPS
Color space : YUV
Chroma subsampling : 4:2:0
Bit depth : 8 bits
Scan type : Progressive
Bits/(Pixel*Frame) : 0.305
Stream size : 2.20 GiB (89%)
Language : English
Default : Yes
Forced : No
Color range : Limited
Color primaries : BT.709
Transfer characteristics : BT.709
Matrix coefficients : BT.709

Audio
ID : 2
Format : AC-3
Format/Info : Audio Coding 3
Codec ID : A_AC3
Duration : 1 h 20 min
Bit rate mode : Constant
Bit rate : 384 kb/s
Channel(s) : 6 channels
Channel positions : Front: L C R, Side: L R, LFE
Sampling rate : 48.0 kHz
Frame rate : 31.250 FPS (1536 SPF)
Bit depth : 16 bits
Compression mode : Lossy
Stream size : 221 MiB (9%)
Language : Russian
Service kind : Complete Main
Default : Yes
Forced : No

Menu
00:00:00.000 : en:Глава 1
00:05:42.080 : en:Глава 2
00:11:40.680 : en:Глава 3
00:17:10.040 : en:Глава 4
00:21:38.200 : en:Глава 5
00:28:00.840 : en:Глава 6
00:33:17.920 : en:Глава 7
00:40:20.120 : en:Глава 8
00:46:01.000 : en:Глава 9
00:51:28.280 : en:Глава 10
00:58:32.320 : en:Глава 11
01:02:57.320 : en:Глава 12
01:08:19.240 : en:Глава 13
01:12:59.200 : en:Глава 14


Трекер:  [ 30-Янв-2018 12:52 ]

  

Скачать .torrent

Размер .torrent файла 13 KB


Размер: 2.47 GB
Хэш (hash) релиза: da707b98aad4453284df6e6bb1df06617299325f
Подписка на обновления:

Торренты, похожие на Новогодний переполох скачать торрент

Форум Название Автор Размер S L Добавлен
Российские фильмы 2016-2018 (Новинки русского кино) ·· Новогодний переполох (Кирилл Папакуль) [2017, Россия, комедия, семейный, WEB-DLRip] iTunes Galfimbul 734185472700 MB 0 0 1517322034

17:20

30-Янв-18

Российские фильмы до 2016 ·· Новогодний переполох (Кирилл Папакуль) [2017, Россия, комедия, семейный, WEB-DL 1080p] Original Rus Galfimbul 30654875722.85 GB 0 0 1517310825

14:13

30-Янв-18

Российские фильмы 2016-2018 (Новинки русского кино) ·· Новогодний переполох (Кирилл Папакуль) [2017, комедия, семейный, WEB-DLRip] Оригинал [iTunes] Galfimbul 15619727361.45 GB 0 0 1517306048

12:54

30-Янв-18

Российские фильмы до 2016 ·· Новогодний переполох (Кирилл Папакуль) [2017, комедия, семейный, WEB-DLRip] Galfimbul 15619727361.45 GB 0 0 1517272037

03:27

30-Янв-18

Российские фильмы 2016-2018 (Новинки русского кино) ·· Новогодний переполох (Кирилл Папакуль) [2017, комедия, семейный, WEB-DL 1080p] iTunes Galfimbul 30654875722.85 GB 0 0 1517270470

03:01

30-Янв-18

Российские фильмы 2016-2018 (Новинки русского кино) ·· Новогодний переполох (Кирилл Папакуль) [2017 г., комедия, семейный, CAMRip] Galfimbul 14677114881.37 GB 0 0 1513426459

15:14

16-Дек-17

Российские сериалы ·· Новогодний переполох / Серии: 1-4 из 4 (Феликс Герчиков) [2012, Комедия, WEBRip 1080p] Galfimbul 61957649715.77 GB 0 0 1421165131

19:05

13-Янв-15

Российские сериалы ·· Новогодний переполох / Серии: 1-4 из 4 (Феликс Герчиков) [2012, Комедия, WEBRip 720p] Galfimbul 47025517784.38 GB 0 0 1420898534

17:02

10-Янв-15

Российские сериалы ·· Новогодний переполох / Серии: 1-4 из 4 (Феликс Герчиков) [2012, Комедия, WEBRip-AVC] Galfimbul 32301360993.01 GB 0 0 1420459355

15:02

5-Янв-15

Российские сериалы ·· Новогодний переполох / Серии: 4 из 4 (Феликс Герчиков) [2012, комедия, 2 х DVD5] Galfimbul 76745973767.15 GB 0 0 1361696612

12:03

24-Фев-13

Российские сериалы ·· Новогодний переполох / Серии: 1-4 из 4 (Феликс Герчиков) [2012, Комедия, DVDRip] Galfimbul 32381480963.02 GB 0 0 1361696503

12:01

24-Фев-13

Российские сериалы ·· Новогодний переполох / Серии: 1-4 из 4 (Феликс Герчиков) [2012, комедия, DVD9] R5 Original Rus Galfimbul 76364451847.11 GB 0 0 1361696419

12:00

24-Фев-13

Еще никто не оставлял запись к записи скачать торрент Новогодний переполох . Будь первым!

!Обратная связь