最終 24 時間で人気のアプリ | HD-SportBits | HDSB | Sport | 2017 Review | アズールレーン

Скачать через торрент музыку Charles Gounod - Romeo et Juliette Ромео и Джульетта бесплатно без регистрации torrent

Статистика раздачи
Размер:  43.04 GB   |    Зарегистрирован:  6 лет 10 месяцев   |    .torrent скачан:  192 раза   |   
Раздают:  1  
   
загрузка...
 
Автор Сообщение

L


Шарль Гуно: "Ромео и Джульетта" / Charles Gounod: Romeo et Juliette

Год выпуска: 2008
Жанр: опера
Продолжительность: 02 ч. 41 мин. 57 сек.
Язык: Французский
Постановка: Бартлет Шер / Bartlett Sher
Оркестр: Salzburg Mozarteum Orchestra
Дирижер: Yannick Nezet-Seguin
В ролях: Nino Machaidze (Juliette), Rolando Villazon (Romeo), Mikhail Petrenko (Frere Laurent), Russell Braun (Mercutio), Cora Burggraaf (Stephano), Falk Struckmann (Le Comte Capulet), Juan Francisco Gatell (Tybalt), Susanne Resmark (Gertrude), Christian Van Horn (Le Duc de Verone), Mathias Hausmann (Le Comte Paris), Jean-Luc Ballestra (Gregorio), Robert Murray (Benvolio)
Действующие лица: Эскал, герцог Веронский (бас), Граф Парис (баритон), Граф Капулетти (бас), Джульетта, его дочь (сопрано), Гертруда, её кормилица (меццо-сопрано), Тибальд, племянник Капулетти (тенор), Ромео, сын графа Монтекки (тенор), Меркуций, его друг (баритон), Бенволио, его друг (тенор), Стефано, паж Ромео (сопрано), Грегорио, слуга Капулетти (баритон), Лоренцо, монах (бас).
Качество: Blu-Ray (BD-50 Dual-Layer Disc)
Контейнер: BDMV
Видео: MPEG-4 AVC Video / 26499 kbps / 1920x1080i / 29,970 fps / 16:9 / High Profile 4.1
Аудио #1:DTS-HD Master Audio 5.0 (48 kHz / 3995 kbps / 24-bit) ((DTS Core: 5.0 / 48 kHz / 1509 kbps / 24-bit)
Аудио #2:LPCM 2.0 (48 kHz / 2304 kbps / 24-bit)
Субтитры : английские, французские, испанские, немецкие, китайские
Запись: Salzburg, Grosses Festspielhaus, 27 & 30 July, 2 August 2008

[b]Опера в 5 действиях с прологом; либретто Ж. Барбье и М. Карре по трагедии Шекспира.



Запись из программы Зальцбургского фестиваля 2008 года

Либретто (полный текст)
В 1867 году французский композитор Charles Gounod (1818-1893) создал прославленную оперу Romeo et Juliette. По окончании консерватории Шарль Гуно отправился на три года в Рим, где изучал творчество старинных итальянских мастеров, в результате чего появились scene from Gounod's Romeo et Juliette. Washington Opera. 1997 - сцена из постановки оперы Гуно в Вашингтонской Опере его первые культовые композиции. Гуно собирался вступить в духовное звание. В Париже, под влиянием Берлиоза и Мендельсона, Гуно обратился в сторону светской музыки. Несмотря на разносторонность творчества композитора, его широкая популярность основывается на операх "Ромео и Джульетта" и "Фауст". Опера "Ромео и Джульетта" - произведение более сложное в гармоническом отношении, где Гуно не чуждается вагнеровских нововведений. Причины его длительного воздействия на вкусы широкого слушателя заключаются прежде всего в необычайной доступности его музыки, основанной на соединении всевозможных стилей, выработанных опытом французских, итальянских и немецких опер. "Ромео и Джульетта" Гуно хорошо известна в мире и ставится до сих пор. Впервые опера была поставлена в театре Лирик (Thearte Lyrique) в Париже. Либретто Барбье и Карре. Ромео - Мишо, Джульетта - Карвальо. В России опера впервые шла на итальянском языке, в 1870 году, с Джульеттой - Арто, так восхищавшей Чайковского (в 1872 году: с Джульеттой - Патти и Ромео - Leonid Sobinov as Romeo in the opera of Gounod. Russia. 1919 - Леонид Собинов Ромео в опере Гуно Николини). Маргарита Дезире Арто (1835-1907) - знаменитая французская певица с голосом обширнейшего диапазона, ученица Полины Виардо. Она примирила Петра Ильича даже с музыкой Гуно, которую он до тех пор не любил. На советской сцене опера была поставлена 16 марта 1919 года в театре Оперы и балета в Петрограде. Режиссёр - Боссе. Затем ставилась во многих городах. Среди выдающихся исполнителей: Ромео - Фигнер, Алчевский, Собинов, Смирнов, Юдин, Лемешев; Джульетта - Мравина, Больска, Нежданова, Барсова, Катульская, Масленникова. Если вы смотрели фильм "Антон Иванович сердится", то, возможно, помните, как в начале фильма героиня Целиковской - Симочка репетирует с преподавателем к экзамену некую арию - это как раз "Вальс Джульетты" из оперы Гуно.

Существует аудиозапись оперы (Emi,1968) с Франко Корелли и Миреллой Френи (Franco Corelli and Mirella Freni as Romeo and Juliette), оркестр и хор Opera di Parigi, управление - Alain Lombard. В 1976 году на сцене Arena di Verona опера была поставлена режиссёром Giangranco De Bosio (Romeo - Veriano Lucchetti, Juliete - Jeannette Pilou). Российский телеканал "Культура" демонстрировал запись спектакля 1994 года на сцене лондонского театра Covent Garden, в совместной постановке Royal Opera House (London), Theatre du Capitole (Toulouse) and Opera Comique (Paris). Дирижёр - Charles Mackerras, режиссёр-постановщик - Nocolas Joel, в главных партиях: Romeo - Roberto Alagna, Juliette - Leontina Vaduva. На иллюстрации можно видеть сцену из оперы Гуно, представленной в 1997 году в театре Washington Opera. Режиссёр-постановщик - Gianfranco Del Monaco, декорации и костюмы - Marika Carniti Bollea, главные партии: Juliette - Elisabeth Futral, Romeo - Marcello Giordani, Lorenzo - Franco de Grandis. На DVD записана художественная версия оперы "Ромео и Джульетта" Гуно (Czech Philarmonic Chamber Orchestra, conductor - Anton Guadagno, Romeo - Roberto Alagna, Juliette - Angela Gheorghiu), фильм снят на фоне старинного замка в Чехии (Iambic Production Ltd. 2002).
Действие происходит в Вероне в начале XIV века.

Пролог.
Хор повествует о том, что в Вероне жили две графские семьи - Монтекки и Капулетти, которые вечно враждовали между собой и всячески мстили друг другу. Однажды дочь графа Капулетти Джульетта полюбила Ромео, сына графа Монтекки, и, так как вековая вражда их родителей не допускала брака между ними, то влюблённые заплатили жизнью за свою любовь.

Действие первое.
Зал в богатом палаццо графа Капулетти. Граф даёт бал-маскарад по случаю дня рождения своей дочери Джульетты. Гости танцуют и веселятся. Племянник Капулетти Тибальд, обращаясь к графу Парису, жениху Джульетты, восхищается пышным балом и выражает уверенность, что он скоро сделается счастливым обладателем красавицы Джульетты. Входит граф Капулетти, ведя за руку Джульетту, за которой следует её кормилица Гертруда. Капулетти радушно приветствует гостей и представляет им свою дочь. Гости любуются красотой Джульетты, которая, как ребёнок, радуется общему веселью. Капулетти приглашает всех в танцевальный зал, и гости удаляются. Входят сын злейшего врага Капулетти, графа Монтекки, Ромео с приятелем Меркуцио; оба в масках Ромео просит приятеля не снимать маски, быть осторожным и не заводить ссоры. Меркуцио смеётся над Ромео и говорит, что Капулетти не очень храбры, и бояться их нечего. Вдали показывается Джульетта. Ромео, увидав её, влюбляется в неё с первого взгляда и останавливается в восхищении, но Меркуцио увлекает его за собой. Гертруда, останавливая бегущую от неё Джульетту, говорит ей, что она, наверное, спешит к графу Парису, который должен стать её мужем. Джульетта возражает, что она ещё не думает о браке и желает долго ещё "хранить свои девичьи грёзы". Гертруда уходит, и Джульетта остаётся одна. Возвращается Ромео и, подойдя к Джульетте, просит разрешения поцеловать её руку, но она отказывает ему в этом. Ромео восхищается её красотой, снимает маску, и молодые люди, не зная даже имён друг друга, объясняются в любви. Ромео просит Джульетту открыть ему, кто она. Когда Джульетта называет себя, Ромео вскрикивает, поражённый тем, что перед ним дочь их заклятого врага. Входит Тибальд и видит Джульетту, разговаривающую с неизвестным ему человеком. По голосу он узнаёт Ромео и клянётся отомстить ему. Джульетта в отчаянии, что она обратила внимание на сына их исконного врага, и говорит, что "только могила будет для них брачным ложем". Капулетти унимает начавшуюся ссору между Тибальдом и Ромео, указывая на то, что здесь место только веселью, и приглашает гостей принять участие в общем празненстве.

Действие второе.
Сад при дворце Капулетти. Вечер. Ромео под балконом мечтает о Джульетте, которую он страстно полюбил. В нежной песне он изливает свои чувства и зовёт Джульетту на свидание. На балконе появляется Джульетта, в свою очереь мечтающая о Ромео. Ромео радостно бросается ей навстречу и говорит слова любви. Джульетта просит его быть осторожным и удалиться, так как она слышит шаги. Ромео прячется. Грегорио, слуга Капулетти, разыскивает пажа Ромео Стефана, которого видел вблизи сада. Не найдя в саду никого, он удаляется. Ромео, убедившись, что опасность миновала, снова приближается к балкону. Он клянётся в вечной любви Джульетте и просит её быть его женой, заявляя, что завтра же пришлёт за ней своего друга, который устроит их венчание. Джульетта бросается к нему в объятия.

Раздаётся голос Гертруды, зовущей свою воспитанницу. Джульетта, отталкивая от сеёя Ромео, просит его уйти, и сама убегает. Оставшись один, Ромео опять предаётся мечтам о своей возлюбленной.

Действие третье. Картина первая.
Келья францисканца отца Лоренцо. Появляется Ромео и приветсвует монаха. Тот удивляется, что Ромео так рано уже на ногах: "Уж не запала ли в его сердце страсть?" Ромео признаётся ему, что любит Джульетту Капулетти. Признание Ромео крайне поражает монаха, знающего вражду между домами Монтекки и Капулетти. Вскоре появляется в сопровождении Гертруды Джульетта, и Ромео просит Лоренцо сочетать их браком. Лоренцо, видя их нежную любовь, соглашается обвенчать их, хотя бы он и подвергся потом страшному мщенью: "Пусть служит этот бракначалом примиренья, погасит раздор и вражду!" Ромео и Джульетта становятся на колени, и Лоренцо венчает их, призывая на них божье благословение.

Картина вторая.
Улица перед дворцом Капулетти. Паж Стефано ищет Ромео. Увидев дом Капулетти, он смеётся над Грегорио, тщетно искавшего его ночью в саду. Вынув шпагу, Стефано говорит, что сумеет постоять за сеёя, и поёт песню о том, что молодая голубка, которую скрывают в этом доме, скоро бросит своё гнездо и, вырвавшись из когтей злых коршунов, стерегущих её, улетит к своему милому сизому голубку. На звуки песни Стефано из дома выходит Грегорио в сопровождении челяди. Он велит пажу прекратить пение, угрожая в противном случае разбить гитару о его спину. Стефано выхватывает шпагу и бросается на Грегорио. Начинается драка. На шум входит Меркуцио и останавливает дерущихся, говоря, что нападать на подростка-пажа - позор, и на это способны только Капулетти. Вышедший из дома Теёальд, услышав слова Меркуцио, просит его замолчать. Меркуцио оскорбляет Тибальда, и они скрещивают шпаги. Подоспевший Ромео разнимает их. Тибальд тогда вызывает на бой Ромео за то, что он оскорбил их дом, ища встречи с Джульеттой и заигрывая с ней. При этом Тибальд называет Ромео жалким трусом. Ромео возражает Тибальду, что он напрасно оскорбляет его, совсем его не зная, но что в его сердце так много любви, что ради неё он прощает ему его дерзость. Он говорит, что пора погаснуть вражде, царящей между их домами. Меркуцио, возмущённый словами Ромео, удивляется, что тот безобидно сносит нанесённое ему оскорбление. Он обнажает шпагу и, мстя за Ромео, вызывает Тибальда на поединок. Ромео старается удержать Меркуцио, но тот отталкивает его и начинает драться с Тибальдом, который ранит его. Меркуцио падает, проклинаяч оба враждующих дома. Ромео, мстя за друга, бросается на Тибальда с обнажённой пшагой. Новый поединок - и Тибальд падает, убитый Ромео. В эту минуту входит Капулетти и бросается к умирающему Тибальду. На шум сбегается народ. Вслед за тем появляется герцог Веронский Эскаль. Капулетти говорит герцогу, что Ромео убил Тибальда. Ромео заявляет, что он отомстил за смерть своего друга Меркуцио. Герцог треёует от Монтекки и Капулетти клятвы в том, что они всегда будут следовать его повелениям и законам, а Ромео, в наказание за убийство, он приказывает отправиться в изгнание. Ромео потрясён приказом герцога, но клянётся, прежде чем уйти, увидеть Джульетту.

Действие четвёртое.
Комната Джульетты. Ночь. Последнее свидание Ромео с Джульеттой. Он рассказывает ей об убийстве Тибальда и о том, что по приказу герцога он с утра должен оставить Верону. Джульетта прощает ему этот грех и говорит, что обожает его. Ромео в восторге просит её повторить слова любви. Влюблённые заключают друг друга в объятия и замирают в сладком упоении. Очнувшись, они замечают, что уже наступает утро, и, слившись в последнем поцелуе, расстаются. Ромео уходит. Джульетта, оставшись одна, мечтает о нём и молится за него. Входит Капулетти и приветсвует дочь; за ним появляется Лоренцо. Капулетти рассказывает дочери о желании умирающего Тибальда выдать Джульетту за графа Париса, представителя рода Капулетти. Воля умирающего священна, и поэтому Джульетта должна стать женой Париса. Обращаясь к монаху, он просит его вразумить Джульетту, а сам уходит. Джульетта бросается к Лоренцо и умоляет спасти её. Лоренцо, заранее всё обдумавший, спрашиваетеё, готова ли она умереть. Джульетта отвечает ему, "что лучше умереть, чем тот позор ужасный". Лоренцо даёт Джульетте склянку, содержимое которой повергает в сон, похожий на смерть. Монах надеется таким образом устроить её побег с Ромео: её сочтут мёртвой, похоронят, и тогда Ромео сможет её похитить и бежать с ней. Лоренцо благословляет Джульетту, которая решительно осушает склянку и падает без чувств.

Действие пятое.
Фамильный склеп Капулетти. Гробница Джульетты. Сюда прокрадывается ничего ещё не знающий о сонном зелье Ромео, чтобы проститься с мёртвой супругой. Он любуется чертами своей любимой, находя, что смерть не изменила её красоты. Не зная, что Джульетта лишь погружена в глубокий сон, и считая её мёртвой, Ромео решается умереть и выпивает яд. Слабея, он опускается на ступени склепа. В эту минуту летаргический сон Джульетты прекращается, и она приходит в сеёя. Очнувшись, она озирается и произносит: "Где я?" Ромео, услышав голос Джульетты, думает, что он начинает бредить, но, видя, что Джульетта поднялась из гроба и осматривается, он стремительно бросается к ней. Джульетта с криком кидается в объятия Ромео. В восторге свидания Ромео забывает на время о смерти. Вдруг он вскрикивает и бессильно падает на землю. Джульетта с ужасом следит за ним и испускает страшный вопль, когда узнает от Ромео, что, считая ее умершей, он выпил яд. Джульетта выхватывает из-за пояса Ромео кинжал и закалывается. Влюбленные супруги просят у бога прощения и, нежно обнявшись, умирают.
Disc Title:
Disc Size: 46 210 929 237 bytes
Protection: AACS
BD-Java: No
BDInfo: 0.5.3

Notes:

BDINFO HOME:
Cinema Squid
http://www.cinemasquid.com/blu-ray/tools/bdinfo

INCLUDES FORUMS REPORT FOR:
AVS Forum Blu-ray Audio and Video Specifications Thread
http://www.avsforum.com/avs-vb/showthread.php?t=1155731

********************
PLAYLIST: 00001.MPLS
********************

<--- BEGIN FORUMS PASTE --->

Код:

Total   Video
Title                                                           Codec   Length  Movie Size      Disc Size       Bitrate Bitrate Main Audio Track                          Secondary Audio Track
-----                                                           ------  ------- --------------  --------------  ------- ------- ------------------                        ---------------------
00001.MPLS                                                      AVC     2:41:57 42 147 612 672  46 210 929 237  34,70   26,50   DTS-HD Master 5.0 3995Kbps (48kHz/24-bit) LPCM 2.0 2304Kbps (48kHz/24-bit)
[code]DISC INFO:

Disc Title:
Disc Size:      46 210 929 237 bytes
Protection:     AACS
BD-Java:        No
BDInfo:         0.5.3

PLAYLIST REPORT:

Name:                   00001.MPLS
Length:                 2:41:57 (h:m:s)
Size:                   42 147 612 672 bytes
Total Bitrate:          34,70 Mbps

VIDEO:

Codec                   Bitrate             Description
-----                   -------             -----------
MPEG-4 AVC Video        26499 kbps          1080i / 29,970 fps / 16:9 / High Profile 4.1

AUDIO:

Codec                           Language        Bitrate         Description
-----                           --------        -------         -----------
DTS-HD Master Audio             French          3995 kbps       5.0 / 48 kHz / 3995 kbps / 24-bit (DTS Core: 5.0 / 48 kHz / 1509 kbps / 24-bit)
LPCM Audio                      French          2304 kbps       2.0 / 48 kHz / 2304 kbps / 24-bit

SUBTITLES:

Codec                           Language        Bitrate         Description
-----                           --------        -------         -----------
Presentation Graphics           English         13,740 kbps
Presentation Graphics           Chinese         13,465 kbps
Presentation Graphics           French          14,156 kbps
Presentation Graphics           German          14,655 kbps
Presentation Graphics           Spanish         14,965 kbps

FILES:

Name            Time In         Length          Size            Total Bitrate
----            -------         ------          ----            -------------
00002.M2TS      0:00:00.000     2:41:57.941     42 147 612 672  34 697

CHAPTERS:

Number          Time In         Length          Avg Video Rate  Max 1-Sec Rate  Max 1-Sec Time  Max 5-Sec Rate  Max 5-Sec Time  Max 10Sec Rate  Max 10Sec Time  Avg Frame Size  Max Frame Size  Max Frame Time
------          -------         ------          --------------  --------------  --------------  --------------  --------------  --------------  --------------  --------------  --------------  --------------
1               0:00:00.000     0:01:20.447     25 638 kbps     32 307 kbps     00:01:07.867    29 726 kbps     00:01:13.606    28 841 kbps     00:01:07.233    106 887 bytes   283 412 bytes   00:01:20.447
2               0:01:20.447     0:06:39.599     24 487 kbps     34 807 kbps     00:05:19.819    32 386 kbps     00:05:18.117    31 065 kbps     00:05:18.951    102 133 bytes   294 699 bytes   00:01:21.247
3               0:08:00.046     0:05:59.025     29 709 kbps     42 192 kbps     00:13:34.213    37 537 kbps     00:08:10.756    35 965 kbps     00:08:07.954    123 909 bytes   304 875 bytes   00:10:31.230
4               0:13:59.071     0:04:37.010     29 370 kbps     38 990 kbps     00:14:45.684    35 592 kbps     00:17:10.329    34 373 kbps     00:14:39.078    122 499 bytes   315 382 bytes   00:16:36.228
5               0:18:36.081     0:01:14.574     27 028 kbps     34 982 kbps     00:19:21.693    32 708 kbps     00:19:20.125    31 117 kbps     00:19:16.321    112 730 bytes   279 135 bytes   00:19:17.890
6               0:19:50.656     0:02:43.463     26 390 kbps     35 198 kbps     00:22:07.859    31 566 kbps     00:22:05.624    29 653 kbps     00:22:17.436    110 067 bytes   287 033 bytes   00:22:30.816
7               0:22:34.119     0:03:39.085     27 380 kbps     39 858 kbps     00:24:40.679    33 818 kbps     00:25:20.185    32 417 kbps     00:24:50.155    114 196 bytes   285 423 bytes   00:24:57.596
8               0:26:13.204     0:04:05.912     27 142 kbps     37 937 kbps     00:27:36.154    33 246 kbps     00:26:58.183    32 168 kbps     00:26:53.678    113 203 bytes   293 423 bytes   00:28:09.054
9               0:30:19.117     0:00:30.797     29 383 kbps     36 027 kbps     00:30:38.837    31 891 kbps     00:30:35.900    30 673 kbps     00:30:31.696    122 554 bytes   291 964 bytes   00:30:44.576
10              0:30:49.914     0:04:22.829     26 477 kbps     34 782 kbps     00:33:04.415    31 547 kbps     00:33:02.780    29 874 kbps     00:33:02.113    110 430 bytes   293 670 bytes   00:33:09.387
11              0:35:12.743     0:05:24.991     27 912 kbps     41 306 kbps     00:39:42.713    37 458 kbps     00:39:41.479    35 649 kbps     00:39:41.278    116 417 bytes   306 226 bytes   00:39:53.924
12              0:40:37.735     0:03:45.358     25 253 kbps     30 876 kbps     00:43:59.370    29 400 kbps     00:43:57.101    28 489 kbps     00:43:55.499    105 326 bytes   294 956 bytes   00:41:16.173
13              0:44:23.093     0:04:51.791     24 929 kbps     31 788 kbps     00:46:40.631    28 019 kbps     00:48:02.479    27 532 kbps     00:48:02.946    103 976 bytes   264 495 bytes   00:44:51.922
14              0:49:14.885     0:04:59.599     24 733 kbps     32 345 kbps     00:51:01.224    28 542 kbps     00:53:36.279    28 059 kbps     00:53:36.112    103 158 bytes   290 146 bytes   00:53:50.860
15              0:54:14.484     0:03:29.442     28 284 kbps     35 395 kbps     00:56:22.846    33 004 kbps     00:56:22.145    31 661 kbps     00:54:23.059    117 968 bytes   288 561 bytes   00:56:05.929
16              0:57:43.927     0:03:46.859     26 932 kbps     37 297 kbps     01:00:02.899    31 730 kbps     01:00:01.965    30 465 kbps     00:59:57.961    112 331 bytes   302 487 bytes   01:00:40.570
17              1:01:30.787     0:04:58.197     26 291 kbps     33 742 kbps     01:03:28.671    31 980 kbps     01:03:27.103    30 053 kbps     01:03:26.435    109 654 bytes   300 851 bytes   01:02:54.437
18              1:06:28.985     0:05:27.827     26 219 kbps     38 260 kbps     01:10:08.938    33 631 kbps     01:10:08.137    31 574 kbps     01:10:06.035    109 354 bytes   282 387 bytes   01:09:34.370
19              1:11:56.812     0:06:54.647     24 351 kbps     40 736 kbps     01:17:36.652    32 345 kbps     01:17:35.017    30 906 kbps     01:17:30.412    101 562 bytes   294 151 bytes   01:18:48.724
20              1:18:51.460     0:04:27.000     26 799 kbps     35 463 kbps     01:19:02.170    33 553 kbps     01:18:59.034    30 863 kbps     01:20:15.510    111 773 bytes   303 545 bytes   01:19:03.071
21              1:23:18.460     0:03:42.689     29 462 kbps     42 356 kbps     01:25:04.566    37 772 kbps     01:25:03.698    35 535 kbps     01:25:01.963    122 883 bytes   292 378 bytes   01:25:42.804
22              1:27:01.149     0:07:35.154     28 221 kbps     42 051 kbps     01:28:37.512    37 559 kbps     01:28:48.589    35 883 kbps     01:28:44.285    117 705 bytes   293 954 bytes   01:31:54.442
23              1:34:36.303     0:06:58.851     26 094 kbps     46 187 kbps     01:35:09.170    35 616 kbps     01:35:07.902    33 439 kbps     01:35:03.097    108 834 bytes   285 566 bytes   01:35:24.752
24              1:41:35.155     0:06:16.376     25 284 kbps     33 945 kbps     01:42:27.074    31 068 kbps     01:42:27.074    29 990 kbps     01:42:26.607    105 456 bytes   280 859 bytes   01:44:51.385
25              1:47:51.531     0:07:03.623     25 954 kbps     37 699 kbps     01:50:04.297    30 884 kbps     01:50:03.930    30 608 kbps     01:49:55.755    108 249 bytes   278 286 bytes   01:54:17.851
26              1:54:55.154     0:05:12.045     26 908 kbps     40 187 kbps     01:58:26.299    33 049 kbps     01:58:22.328    31 629 kbps     01:58:18.124    112 230 bytes   288 662 bytes   01:58:15.288
27              2:00:07.200     0:05:53.953     26 347 kbps     39 502 kbps     02:00:47.306    32 778 kbps     02:00:45.538    30 601 kbps     02:05:45.170    109 890 bytes   280 704 bytes   02:04:38.571
28              2:06:01.153     0:06:11.704     26 340 kbps     37 023 kbps     02:07:41.387    32 945 kbps     02:09:18.984    32 340 kbps     02:09:14.880    109 861 bytes   295 161 bytes   02:09:27.092
29              2:12:12.858     0:04:25.598     26 340 kbps     38 600 kbps     02:15:33.024    36 053 kbps     02:15:32.090    35 056 kbps     02:15:28.687    109 859 bytes   287 286 bytes   02:16:20.605
30              2:16:38.456     0:02:35.088     25 831 kbps     32 554 kbps     02:19:00.165    31 057 kbps     02:19:00.165    30 319 kbps     02:18:55.827    107 736 bytes   289 606 bytes   02:19:07.405
31              2:19:13.545     0:05:55.888     26 169 kbps     34 355 kbps     02:23:18.523    31 794 kbps     02:19:23.922    30 705 kbps     02:19:19.918    109 148 bytes   289 580 bytes   02:21:55.306
32              2:25:09.434     0:04:15.722     26 777 kbps     35 684 kbps     02:28:10.615    33 750 kbps     02:28:09.714    32 711 kbps     02:28:05.476    111 683 bytes   295 017 bytes   02:27:01.779
33              2:29:25.156     0:12:32.785     25 654 kbps     44 335 kbps     02:37:06.316    35 576 kbps     02:39:41.371    34 363 kbps     02:39:38.168    107 005 bytes   303 001 bytes   02:39:07.871

STREAM DIAGNOSTICS:

File            PID             Type            Codec           Language                Seconds                 Bitrate                 Bytes           Packets
----            ---             ----            -----           --------                --------------          --------------          -------------   -----
00002.M2TS      4113 (0x1011)   0x1B            AVC                                     9717,808                26 500                  32 189 680 977  175 259 300
00002.M2TS      4352 (0x1100)   0x86            DTS-HD MA       fra (French)            9717,808                3 995                   4 852 462 260   27 885 580
00002.M2TS      4353 (0x1101)   0x80            LPCM            fra (French)            9717,808                2 310                   2 806 551 180   15 548 760
00002.M2TS      4608 (0x1200)   0x90            PGS             fra (French)            9717,808                14                      17 195 458      99 648
00002.M2TS      4609 (0x1201)   0x90            PGS             eng (English)           9717,808                14                      16 690 073      96 904
00002.M2TS      4610 (0x1202)   0x90            PGS             deu (German)            9717,808                15                      17 801 854      102 936
00002.M2TS      4611 (0x1203)   0x90            PGS             spa (Spanish)           9717,808                15                      18 179 175      105 000
00002.M2TS      4612 (0x1204)   0x90            PGS             zho (Chinese)           9717,808                13                      16 355 920      95 090[/code]
<---- END FORUMS PASTE ---->

QUICK SUMMARY:

Disc Title:
Disc Size: 46 210 929 237 bytes
Protection: AACS
BD-Java: No
Playlist: 00001.MPLS
Size: 42 147 612 672 bytes
Length: 2:41:57
Total Bitrate: 34,70 Mbps
Video: MPEG-4 AVC Video / 26499 kbps / 1080i / 29,970 fps / 16:9 / High Profile 4.1
Audio: French / DTS-HD Master Audio / 5.0 / 48 kHz / 3995 kbps / 24-bit (DTS Core: 5.0 / 48 kHz / 1509 kbps / 24-bit)
Audio: French / LPCM Audio / 2.0 / 48 kHz / 2304 kbps / 24-bit
Subtitle: English / 13,740 kbps
Subtitle: Chinese / 13,465 kbps
Subtitle: French / 14,156 kbps
Subtitle: German / 14,655 kbps
Subtitle: Spanish / 14,965 kbps

********************
PLAYLIST: 00002.MPLS
********************

<--- BEGIN FORUMS PASTE --->
[code]Total   Video
Title                                                           Codec   Length  Movie Size      Disc Size       Bitrate Bitrate Main Audio Track                          Secondary Audio Track
-----                                                           ------  ------- --------------  --------------  ------- ------- ------------------                        ---------------------
00002.MPLS                                                      AVC     0:07:42 1 740 220 416   46 210 929 237  30,08   24,98   LPCM 2.0 1536Kbps (48kHz/16-bit)          LPCM 2.0 1536Kbps (48kHz/16-bit)[/code]
[code]DISC INFO:

Disc Title:
Disc Size:      46 210 929 237 bytes
Protection:     AACS
BD-Java:        No
BDInfo:         0.5.3

PLAYLIST REPORT:

Name:                   00002.MPLS
Length:                 0:07:42 (h:m:s)
Size:                   1 740 220 416 bytes
Total Bitrate:          30,08 Mbps

VIDEO:

Codec                   Bitrate             Description
-----                   -------             -----------
MPEG-4 AVC Video        24983 kbps          1080i / 29,970 fps / 16:9 / High Profile 4.1

AUDIO:

Codec                           Language        Bitrate         Description
-----                           --------        -------         -----------
LPCM Audio                      German          1536 kbps       2.0 / 48 kHz / 1536 kbps / 16-bit
LPCM Audio                      German          1536 kbps       2.0 / 48 kHz / 1536 kbps / 16-bit

SUBTITLES:

Codec                           Language        Bitrate         Description
-----                           --------        -------         -----------
Presentation Graphics           English         50,924 kbps
Presentation Graphics           Chinese         38,335 kbps
Presentation Graphics           French          54,594 kbps
Presentation Graphics           German          0,010 kbps
Presentation Graphics           Spanish         54,990 kbps

FILES:

Name            Time In         Length          Size            Total Bitrate
----            -------         ------          ----            -------------
00003.M2TS      0:00:00.000     0:07:42.895     1 740 220 416   30 075

CHAPTERS:

Number          Time In         Length          Avg Video Rate  Max 1-Sec Rate  Max 1-Sec Time  Max 5-Sec Rate  Max 5-Sec Time  Max 10Sec Rate  Max 10Sec Time  Avg Frame Size  Max Frame Size  Max Frame Time
------          -------         ------          --------------  --------------  --------------  --------------  --------------  --------------  --------------  --------------  --------------  --------------
1               0:00:00.000     0:07:42.895     24 983 kbps     38 407 kbps     00:00:07.474    35 525 kbps     00:04:09.616    33 774 kbps     00:05:48.381    104 201 bytes   336 738 bytes   00:04:13.586

STREAM DIAGNOSTICS:

File            PID             Type            Codec           Language                Seconds                 Bitrate                 Bytes           Packets
----            ---             ----            -----           --------                --------------          --------------          -------------   -----
00003.M2TS      4113 (0x1011)   0x1B            AVC                                     462,796                 24 989                  1 445 580 624   7 871 706
00003.M2TS      4352 (0x1100)   0x80            LPCM            deu (German)            462,796                 1 543                   89 247 120      555 480
00003.M2TS      4353 (0x1101)   0x80            LPCM            deu (German)            462,796                 1 543                   89 247 120      555 480
00003.M2TS      4608 (0x1200)   0x90            PGS             fra (French)            462,796                 55                      3 158 925       17 899
00003.M2TS      4609 (0x1201)   0x90            PGS             eng (English)           462,796                 51                      2 946 548       16 748
00003.M2TS      4610 (0x1202)   0x90            PGS             deu (German)            462,796                 0                       597             10
00003.M2TS      4611 (0x1203)   0x90            PGS             spa (Spanish)           462,796                 55                      3 181 843       18 026
00003.M2TS      4612 (0x1204)   0x90            PGS             zho (Chinese)           462,796                 38                      2 218 140       12 787[/code]
<---- END FORUMS PASTE ---->

QUICK SUMMARY:

Disc Title:
Disc Size: 46 210 929 237 bytes
Protection: AACS
BD-Java: No
Playlist: 00002.MPLS
Size: 1 740 220 416 bytes
Length: 0:07:42
Total Bitrate: 30,08 Mbps
Video: MPEG-4 AVC Video / 24983 kbps / 1080i / 29,970 fps / 16:9 / High Profile 4.1
Audio: German / LPCM Audio / 2.0 / 48 kHz / 1536 kbps / 16-bit
Audio: German / LPCM Audio / 2.0 / 48 kHz / 1536 kbps / 16-bit
Subtitle: English / 50,924 kbps
Subtitle: Chinese / 38,335 kbps
Subtitle: French / 54,594 kbps
Subtitle: German / 0,010 kbps
Subtitle: Spanish / 54,990 kbps

********************
PLAYLIST: 00005.MPLS
********************

<--- BEGIN FORUMS PASTE --->
[code]Total   Video
Title                                                           Codec   Length  Movie Size      Disc Size       Bitrate Bitrate Main Audio Track                          Secondary Audio Track
-----                                                           ------  ------- --------------  --------------  ------- ------- ------------------                        ---------------------
00005.MPLS                                                      AVC     0:04:33 1 028 020 224   46 210 929 237  30,07   24,97   LPCM 2.0 1536Kbps (48kHz/16-bit)          LPCM 2.0 1536Kbps (48kHz/16-bit)[/code]
[code]DISC INFO:

Disc Title:
Disc Size:      46 210 929 237 bytes
Protection:     AACS
BD-Java:        No
BDInfo:         0.5.3

PLAYLIST REPORT:

Name:                   00005.MPLS
Length:                 0:04:33 (h:m:s)
Size:                   1 028 020 224 bytes
Total Bitrate:          30,07 Mbps

VIDEO:

Codec                   Bitrate             Description
-----                   -------             -----------
MPEG-4 AVC Video        24975 kbps          1080i / 29,970 fps / 16:9 / High Profile 4.1

AUDIO:

Codec                           Language        Bitrate         Description
-----                           --------        -------         -----------
LPCM Audio                      German          1536 kbps       2.0 / 48 kHz / 1536 kbps / 16-bit
LPCM Audio                      German          1536 kbps       2.0 / 48 kHz / 1536 kbps / 16-bit

SUBTITLES:

Codec                           Language        Bitrate         Description
-----                           --------        -------         -----------
Presentation Graphics           English         51,095 kbps
Presentation Graphics           Chinese         40,156 kbps
Presentation Graphics           French          53,855 kbps
Presentation Graphics           German          0,017 kbps
Presentation Graphics           Spanish         55,704 kbps

FILES:

Name            Time In         Length          Size            Total Bitrate
----            -------         ------          ----            -------------
00006.M2TS      0:00:00.000     0:04:33.506     1 028 020 224   30 069

CHAPTERS:

Number          Time In         Length          Avg Video Rate  Max 1-Sec Rate  Max 1-Sec Time  Max 5-Sec Rate  Max 5-Sec Time  Max 10Sec Rate  Max 10Sec Time  Avg Frame Size  Max Frame Size  Max Frame Time
------          -------         ------          --------------  --------------  --------------  --------------  --------------  --------------  --------------  --------------  --------------  --------------
1               0:00:00.000     0:04:33.506     24 975 kbps     42 077 kbps     00:03:50.597    36 598 kbps     00:01:31.491    35 039 kbps     00:01:31.157    104 166 bytes   340 127 bytes   00:02:24.511

STREAM DIAGNOSTICS:

File            PID             Type            Codec           Language                Seconds                 Bitrate                 Bytes           Packets
----            ---             ----            -----           --------                --------------          --------------          -------------   -----
00006.M2TS      4113 (0x1011)   0x1B            AVC                                     273,373                 24 987                  853 849 126     4 649 538
00006.M2TS      4352 (0x1100)   0x80            LPCM            deu (German)            273,373                 1 543                   52 732 728      328 212
00006.M2TS      4353 (0x1101)   0x80            LPCM            deu (German)            273,373                 1 543                   52 732 728      328 212
00006.M2TS      4608 (0x1200)   0x90            PGS             fra (French)            273,373                 54                      1 841 203       10 461
00006.M2TS      4609 (0x1201)   0x90            PGS             eng (English)           273,373                 51                      1 746 852       9 943
00006.M2TS      4610 (0x1202)   0x90            PGS             deu (German)            273,373                 0                       597             10
00006.M2TS      4611 (0x1203)   0x90            PGS             spa (Spanish)           273,373                 56                      1 904 422       10 795
00006.M2TS      4612 (0x1204)   0x90            PGS             zho (Chinese)           273,373                 40                      1 372 854       7 913[/code]
<---- END FORUMS PASTE ---->

QUICK SUMMARY:

Disc Title:
Disc Size: 46 210 929 237 bytes
Protection: AACS
BD-Java: No
Playlist: 00005.MPLS
Size: 1 028 020 224 bytes
Length: 0:04:33
Total Bitrate: 30,07 Mbps
Video: MPEG-4 AVC Video / 24975 kbps / 1080i / 29,970 fps / 16:9 / High Profile 4.1
Audio: German / LPCM Audio / 2.0 / 48 kHz / 1536 kbps / 16-bit
Audio: German / LPCM Audio / 2.0 / 48 kHz / 1536 kbps / 16-bit
Subtitle: English / 51,095 kbps
Subtitle: Chinese / 40,156 kbps
Subtitle: French / 53,855 kbps
Subtitle: German / 0,017 kbps
Subtitle: Spanish / 55,704 kbps

********************
PLAYLIST: 00004.MPLS
********************

<--- BEGIN FORUMS PASTE --->
[code]Total   Video
Title                                                           Codec   Length  Movie Size      Disc Size       Bitrate Bitrate Main Audio Track                          Secondary Audio Track
-----                                                           ------  ------- --------------  --------------  ------- ------- ------------------                        ---------------------
00004.MPLS                                                      AVC     0:02:04 465 426 432     46 210 929 237  30,01   24,94   LPCM 2.0 1536Kbps (48kHz/16-bit)          LPCM 2.0 1536Kbps (48kHz/16-bit)[/code]
[code]DISC INFO:

Disc Title:
Disc Size:      46 210 929 237 bytes
Protection:     AACS
BD-Java:        No
BDInfo:         0.5.3

PLAYLIST REPORT:

Name:                   00004.MPLS
Length:                 0:02:04 (h:m:s)
Size:                   465 426 432 bytes
Total Bitrate:          30,01 Mbps

VIDEO:

Codec                   Bitrate             Description
-----                   -------             -----------
MPEG-4 AVC Video        24944 kbps          1080i / 29,970 fps / 16:9 / High Profile 4.1

AUDIO:

Codec                           Language        Bitrate         Description
-----                           --------        -------         -----------
LPCM Audio                      German          1536 kbps       2.0 / 48 kHz / 1536 kbps / 16-bit
LPCM Audio                      German          1536 kbps       2.0 / 48 kHz / 1536 kbps / 16-bit

SUBTITLES:

Codec                           Language        Bitrate         Description
-----                           --------        -------         -----------
Presentation Graphics           English         42,971 kbps
Presentation Graphics           Chinese         35,645 kbps
Presentation Graphics           French          44,787 kbps
Presentation Graphics           German          0,038 kbps
Presentation Graphics           Spanish         46,382 kbps

FILES:

Name            Time In         Length          Size            Total Bitrate
----            -------         ------          ----            -------------
00005.M2TS      0:00:00.000     0:02:04.090     465 426 432     30 006

CHAPTERS:

Number          Time In         Length          Avg Video Rate  Max 1-Sec Rate  Max 1-Sec Time  Max 5-Sec Rate  Max 5-Sec Time  Max 10Sec Rate  Max 10Sec Time  Avg Frame Size  Max Frame Size  Max Frame Time
------          -------         ------          --------------  --------------  --------------  --------------  --------------  --------------  --------------  --------------  --------------  --------------
1               0:00:00.000     0:02:04.090     24 944 kbps     35 022 kbps     00:01:51.911    33 381 kbps     00:01:47.273    33 027 kbps     00:01:44.070    104 038 bytes   291 329 bytes   00:01:52.111

STREAM DIAGNOSTICS:

File            PID             Type            Codec           Language                Seconds                 Bitrate                 Bytes           Packets
----            ---             ----            -----           --------                --------------          --------------          -------------   -----
00005.M2TS      4113 (0x1011)   0x1B            AVC                                     124,024                 24 958                  386 918 464     2 107 052
00005.M2TS      4352 (0x1100)   0x80            LPCM            deu (German)            124,024                 1 543                   23 925 516      148 914
00005.M2TS      4353 (0x1101)   0x80            LPCM            deu (German)            124,024                 1 543                   23 925 516      148 914
00005.M2TS      4608 (0x1200)   0x90            PGS             fra (French)            124,024                 45                      694 709         3 960
00005.M2TS      4609 (0x1201)   0x90            PGS             eng (English)           124,024                 43                      666 544         3 804
00005.M2TS      4610 (0x1202)   0x90            PGS             deu (German)            124,024                 0                       597             10
00005.M2TS      4611 (0x1203)   0x90            PGS             spa (Spanish)           124,024                 46                      719 445         4 092
00005.M2TS      4612 (0x1204)   0x90            PGS             zho (Chinese)           124,024                 36                      552 909         3 186[/code]
<---- END FORUMS PASTE ---->

QUICK SUMMARY:

Disc Title:
Disc Size: 46 210 929 237 bytes
Protection: AACS
BD-Java: No
Playlist: 00004.MPLS
Size: 465 426 432 bytes
Length: 0:02:04
Total Bitrate: 30,01 Mbps
Video: MPEG-4 AVC Video / 24944 kbps / 1080i / 29,970 fps / 16:9 / High Profile 4.1
Audio: German / LPCM Audio / 2.0 / 48 kHz / 1536 kbps / 16-bit
Audio: German / LPCM Audio / 2.0 / 48 kHz / 1536 kbps / 16-bit
Subtitle: English / 42,971 kbps
Subtitle: Chinese / 35,645 kbps
Subtitle: French / 44,787 kbps
Subtitle: German / 0,038 kbps
Subtitle: Spanish / 46,382 kbps

********************
PLAYLIST: 00003.MPLS
********************

<--- BEGIN FORUMS PASTE --->
[code]Total   Video
Title                                                           Codec   Length  Movie Size      Disc Size       Bitrate Bitrate Main Audio Track                          Secondary Audio Track
-----                                                           ------  ------- --------------  --------------  ------- ------- ------------------                        ---------------------
00003.MPLS                                                      AVC     0:01:26 323 844 096     46 210 929 237  30,07   24,98   LPCM 2.0 1536Kbps (48kHz/16-bit)          LPCM 2.0 1536Kbps (48kHz/16-bit)[/code]
[code]DISC INFO:

Disc Title:
Disc Size:      46 210 929 237 bytes
Protection:     AACS
BD-Java:        No
BDInfo:         0.5.3

PLAYLIST REPORT:

Name:                   00003.MPLS
Length:                 0:01:26 (h:m:s)
Size:                   323 844 096 bytes
Total Bitrate:          30,07 Mbps

VIDEO:

Codec                   Bitrate             Description
-----                   -------             -----------
MPEG-4 AVC Video        24983 kbps          1080i / 29,970 fps / 16:9 / High Profile 4.1

AUDIO:

Codec                           Language        Bitrate         Description
-----                           --------        -------         -----------
LPCM Audio                      German          1536 kbps       2.0 / 48 kHz / 1536 kbps / 16-bit
LPCM Audio                      German          1536 kbps       2.0 / 48 kHz / 1536 kbps / 16-bit

SUBTITLES:

Codec                           Language        Bitrate         Description
-----                           --------        -------         -----------
Presentation Graphics           English         50,160 kbps
Presentation Graphics           Chinese         42,118 kbps
Presentation Graphics           French          47,944 kbps
Presentation Graphics           German          0,055 kbps
Presentation Graphics           Spanish         53,982 kbps

FILES:

Name            Time In         Length          Size            Total Bitrate
----            -------         ------          ----            -------------
00004.M2TS      0:00:00.000     0:01:26.152     323 844 096     30 072

CHAPTERS:

Number          Time In         Length          Avg Video Rate  Max 1-Sec Rate  Max 1-Sec Time  Max 5-Sec Rate  Max 5-Sec Time  Max 10Sec Rate  Max 10Sec Time  Avg Frame Size  Max Frame Size  Max Frame Time
------          -------         ------          --------------  --------------  --------------  --------------  --------------  --------------  --------------  --------------  --------------  --------------
1               0:00:00.000     0:01:26.152     24 983 kbps     35 240 kbps     00:00:07.841    31 489 kbps     00:01:12.705    31 324 kbps     00:01:12.839    104 199 bytes   288 510 bytes   00:00:59.259

STREAM DIAGNOSTICS:

File            PID             Type            Codec           Language                Seconds                 Bitrate                 Bytes           Packets
----            ---             ----            -----           --------                --------------          --------------          -------------   -----
00004.M2TS      4113 (0x1011)   0x1B            AVC                                     86,086                  25 002                  269 042 464     1 465 171
00004.M2TS      4352 (0x1100)   0x80            LPCM            deu (German)            86,086                  1 544                   16 610 684      103 386
00004.M2TS      4353 (0x1101)   0x80            LPCM            deu (German)            86,086                  1 544                   16 610 684      103 386
00004.M2TS      4608 (0x1200)   0x90            PGS             fra (French)            86,086                  48                      516 317         2 921
00004.M2TS      4609 (0x1201)   0x90            PGS             eng (English)           86,086                  50                      540 175         3 050
00004.M2TS      4610 (0x1202)   0x90            PGS             deu (German)            86,086                  0                       597             10
00004.M2TS      4611 (0x1203)   0x90            PGS             spa (Spanish)           86,086                  54                      581 332         3 278
00004.M2TS      4612 (0x1204)   0x90            PGS             zho (Chinese)           86,086                  42                      453 571         2 581[/code]
<---- END FORUMS PASTE ---->

QUICK SUMMARY:

Disc Title:
Disc Size: 46 210 929 237 bytes
Protection: AACS
BD-Java: No
Playlist: 00003.MPLS
Size: 323 844 096 bytes
Length: 0:01:26
Total Bitrate: 30,07 Mbps
Video: MPEG-4 AVC Video / 24983 kbps / 1080i / 29,970 fps / 16:9 / High Profile 4.1
Audio: German / LPCM Audio / 2.0 / 48 kHz / 1536 kbps / 16-bit
Audio: German / LPCM Audio / 2.0 / 48 kHz / 1536 kbps / 16-bit
Subtitle: English / 50,160 kbps
Subtitle: Chinese / 42,118 kbps
Subtitle: French / 47,944 kbps
Subtitle: German / 0,055 kbps
Subtitle: Spanish / 53,982 kbps

********************
PLAYLIST: 00000.MPLS
********************

<--- BEGIN FORUMS PASTE --->
[code]Total   Video
Title                                                           Codec   Length  Movie Size      Disc Size       Bitrate Bitrate Main Audio Track                          Secondary Audio Track
-----                                                           ------  ------- --------------  --------------  ------- ------- ------------------                        ---------------------
00000.MPLS                                                      AVC     0:00:25 29 890 560      46 210 929 237  9,37    8,89[/code]
[code]DISC INFO:

Disc Title:
Disc Size:      46 210 929 237 bytes
Protection:     AACS
BD-Java:        No
BDInfo:         0.5.3

PLAYLIST REPORT:

Name:                   00000.MPLS
Length:                 0:00:25 (h:m:s)
Size:                   29 890 560 bytes
Total Bitrate:          9,37 Mbps

VIDEO:

Codec                   Bitrate             Description
-----                   -------             -----------
MPEG-4 AVC Video        8891 kbps           1080i / 29,970 fps / 16:9 / High Profile 4.1

FILES:

Name            Time In         Length          Size            Total Bitrate
----            -------         ------          ----            -------------
00001.M2TS      0:00:00.000     0:00:11.511     4 761 600       3 309
00000.M2TS      0:00:11.511     0:00:14.014     25 128 960      14 345

CHAPTERS:

Number          Time In         Length          Avg Video Rate  Max 1-Sec Rate  Max 1-Sec Time  Max 5-Sec Rate  Max 5-Sec Time  Max 10Sec Rate  Max 10Sec Time  Avg Frame Size  Max Frame Size  Max Frame Time
------          -------         ------          --------------  --------------  --------------  --------------  --------------  --------------  --------------  --------------  --------------  --------------
1               0:00:00.000     0:00:25.525     8 891 kbps      21 060 kbps     00:00:22.622    16 996 kbps     00:00:19.285    16 663 kbps     00:00:13.880    37 081 bytes    195 863 bytes   00:00:21.721

STREAM DIAGNOSTICS:

File            PID             Type            Codec           Language                Seconds                 Bitrate                 Bytes           Packets
----            ---             ----            -----           --------                --------------          --------------          -------------   -----
00001.M2TS      4113 (0x1011)   0x1B            AVC                                     11,411                  3 126                   4 459 353       24 395
00000.M2TS      4113 (0x1011)   0x1B            AVC                                     13,914                  13 746                  23 907 496      130 409[/code]
<---- END FORUMS PASTE ---->

QUICK SUMMARY:

Disc Title:
Disc Size: 46 210 929 237 bytes
Protection: AACS
BD-Java: No
Playlist: 00000.MPLS
Size: 29 890 560 bytes
Length: 0:00:25
Total Bitrate: 9,37 Mbps
Video: MPEG-4 AVC Video / 8891 kbps / 1080i / 29,970 fps / 16:9 / High Profile 4.1


Трекер:  [ 27-Сен-2011 21:13 ]

  

Скачать .torrent

Размер .torrent файла 221 KB


Размер: 43.04 GB
Хэш (hash) релиза: 2a2cbcd3b372ea565550c8d4569e33b5ff12c8fd

Еще никто не оставлял запись к записи скачать торрент Charles Gounod - Romeo et Juliette Ромео и Джульетта . Будь первым!

!Обратная связь