Next Gen | Marvel Rising: Secret Warriors Duration: 80 min | Regarder

Скачать через торрент музыку Массне - Манон Massenet - Manon бесплатно без регистрации torrent

Статистика раздачи
Размер:  43.21 GB   |    Зарегистрирован:  7 лет   |    .torrent скачан:  153 раза   |   
Раздают:  1  
   
загрузка...
 
Автор Сообщение

L


Массне - Манон / Massenet - Manon / (Netrebko Villazon / Нетребко Виллазон) [2007 г., Опера, Blu-ray]

Год выпуска: 2007
Жанр: Опера
Продолжительность: 2ч 38мин 36сек

Режиссер: Vincent Paterson
Дирижер: Daniel Barenboim

В ролях: Anna Netrebko - Manon, Rolando Villazon - Chevalier des Grieux, Alfredo Daza - Lescaut, Christof Fischesser - Le Comte des Grieux, Remy Corazza - Guillot de Morfontaine, Arttu Kataja - De Bretigny, Hanan Alattar - Poussette, Gal James - Javotte, Silvia de La Muela - Rosette,Matthias Vieweg - Wirt

Описание:
Опера в пяти действиях; либретто А. Мельяка и Ф. Жилля по роману А. Ф. Прево "История кавалера Де Грие и Манон Леско". Первая постановка: Париж, "Опера комик", 19 января 1884 года.
Действующие лица: Манон Леско (сопрано), Пуссетта (сопрано), Жавотта (меццо-сопрано), Розетта (контральто), кавалер Де Грие (тенор), Леско (баритон), граф Де Грие (бас), Гийо де Морфонтен (тенор), Де Бретиньи (баритон); два стражника, привратник семинарии, сержант, стрелок, игрок; знатные дамы, синьоры, горожане и горожанки Амьена и Парижа; путешественники и путешественницы, носильщики, кондуктора, торговцы и торговки, богомолки, игроки, шулера.
Действие происходит во Франции в 1721 году.
Патерсон переносит действие в «золотой век» Голливуда - середину XX века. И Нетребко предстает то в образе Одри Хепберн, то – как Мэрилин Монро… Виллазон тоже примеряет разные обличия, хотя из-за некоторой однобокости самого оперного персонажа (Де Грие) смены костюмов и причесок не так хорошо работают, как в случае с Манон (где подчеркивается изменчивость ее натуры). Именно Манон Леско в исполнении Нетребко – центр всего спектакля, его главное достоинство и… его же основной недостаток.
Достоинство – понятно почему: Нетребко здесь феноменально, умопомрачительно красива. Мне кажется, ей следовало бы работать только с Патерсоном, потому что он как никто другой может подчеркнуть ее внешние данные и помочь красоте Анны засиять в полную силу. Про вокальные и актерские достоинства и не говорю – здесь все ожидаемо безупречно. Патерсон, кстати, не скрывает, что делал свою постановку под конкретных исполнителей – Нетребко и Виллазона. Но в этом же заключается и главный недостаток, точнее – уязвимое место.
Обычно оперные постановки (особенно удачные) идут годами, а то и десятилетиями, а играть в них могут самые разные артисты. Здесь же другие исполнители, нежели Нетребко и Виллазон, просто немыслимы. ...Kastor.

Качество: Blu-Ray (BD-50 Dual-Layer Disc)
Контейнер: BDMV
Видео: MPEG-4 AVC Video / 23906 kbps / 1080i / 29,970 fps / 16:9 / High Profile 4.1
Аудио: French / LPCM Audio / 5.1 / 48 kHz / 6912 kbps / 24-bit
Аудио: French / DTS-HD High-Res Audio / 5.1 / 48 kHz / 2046 kbps / 24-bit (DTS Core: 5.1 / 48 kHz / 1509 kbps / 24-bit)
Аудио: French / LPCM Audio / 2.0 / 48 kHz / 2304 kbps / 24-bit
Субтитры: английские, французские, испанские, немецкие, китайские
Disc Title: MANON
Disc Size: 46 403 905 640 bytes
Protection: AACS
BD-Java: No
BDInfo: 0.5.3

Notes:

BDINFO HOME:
Cinema Squid
http://www.cinemasquid.com/blu-ray/tools/bdinfo

INCLUDES FORUMS REPORT FOR:
AVS Forum Blu-ray Audio and Video Specifications Thread
http://www.avsforum.com/avs-vb/showthread.php?t=1155731

********************
PLAYLIST: 00001.MPLS
********************

<--- BEGIN FORUMS PASTE --->

Код:

Total   Video
Title                                                           Codec   Length  Movie Size      Disc Size       Bitrate Bitrate Main Audio Track                          Secondary Audio Track
-----                                                           ------  ------- --------------  --------------  ------- ------- ------------------                        ---------------------
00001.MPLS                                                      AVC     2:38:36 44 346 003 456  46 403 905 640  37,28   23,91   LPCM 5.1 6912Kbps (48kHz/24-bit)          DTS-HD Hi-Res 5.1 2046Kbps (48kHz/24-bit)[/spoiler]
[code]DISC INFO:

Disc Title:     MANON
Disc Size:      46 403 905 640 bytes
Protection:     AACS
BD-Java:        No
BDInfo:         0.5.3

PLAYLIST REPORT:

Name:                   00001.MPLS
Length:                 2:38:36 (h:m:s)
Size:                   44 346 003 456 bytes
Total Bitrate:          37,28 Mbps

VIDEO:

Codec                   Bitrate             Description
-----                   -------             -----------
MPEG-4 AVC Video        23906 kbps          1080i / 29,970 fps / 16:9 / High Profile 4.1

AUDIO:

Codec                           Language        Bitrate         Description
-----                           --------        -------         -----------
LPCM Audio                      French          6912 kbps       5.1 / 48 kHz / 6912 kbps / 24-bit
DTS-HD High-Res Audio           French          2046 kbps       5.1 / 48 kHz / 2046 kbps / 24-bit (DTS Core: 5.1 / 48 kHz / 1509 kbps / 24-bit)
LPCM Audio                      French          2304 kbps       2.0 / 48 kHz / 2304 kbps / 24-bit

SUBTITLES:

Codec                           Language        Bitrate         Description
-----                           --------        -------         -----------
Presentation Graphics           English         22,734 kbps
Presentation Graphics           Chinese         22,314 kbps
Presentation Graphics           French          21,759 kbps
Presentation Graphics           German          24,151 kbps
Presentation Graphics           Spanish         20,616 kbps

FILES:

Name            Time In         Length          Size            Total Bitrate
----            -------         ------          ----            -------------
00000.M2TS      0:00:00.000     2:38:36.507     44 346 003 456  37 279

CHAPTERS:

Number          Time In         Length          Avg Video Rate  Max 1-Sec Rate  Max 1-Sec Time  Max 5-Sec Rate  Max 5-Sec Time  Max 10Sec Rate  Max 10Sec Time  Avg Frame Size  Max Frame Size  Max Frame Time
------          -------         ------          --------------  --------------  --------------  --------------  --------------  --------------  --------------  --------------  --------------  --------------
1               0:00:00.000     0:03:43.456     24 877 kbps     37 201 kbps     00:01:13.006    35 477 kbps     00:01:11.204    34 440 kbps     00:01:11.004    103 742 bytes   495 658 bytes   00:01:09.602
2               0:03:43.456     0:05:15.048     27 006 kbps     38 360 kbps     00:05:54.721    34 887 kbps     00:03:54.701    33 672 kbps     00:03:50.463    112 639 bytes   495 930 bytes   00:08:38.784
3               0:08:58.504     0:02:44.664     25 635 kbps     41 715 kbps     00:10:52.551    35 749 kbps     00:10:52.952    34 304 kbps     00:10:45.478    106 918 bytes   495 230 bytes   00:10:52.585
4               0:11:43.169     0:04:50.623     20 088 kbps     34 126 kbps     00:11:59.351    30 720 kbps     00:11:46.372    30 039 kbps     00:14:37.743    83 782 bytes    442 097 bytes   00:11:51.343
5               0:16:33.792     0:03:41.921     22 892 kbps     36 814 kbps     00:19:09.314    31 718 kbps     00:18:12.391    30 140 kbps     00:18:05.150    95 478 bytes    494 501 bytes   00:18:10.022
6               0:20:15.714     0:02:58.111     20 883 kbps     30 532 kbps     00:22:55.607    26 851 kbps     00:22:36.354    26 026 kbps     00:22:33.885    87 100 bytes    479 721 bytes   00:20:55.887
7               0:23:13.825     0:05:24.924     21 196 kbps     33 720 kbps     00:27:21.906    31 006 kbps     00:27:01.820    28 074 kbps     00:27:18.937    88 404 bytes    494 672 bytes   00:28:18.897
8               0:28:38.750     0:04:28.034     21 291 kbps     30 609 kbps     00:28:46.891    27 056 kbps     00:29:49.420    25 479 kbps     00:29:46.551    88 802 bytes    495 244 bytes   00:31:15.540
9               0:33:06.784     0:03:44.324     22 487 kbps     35 166 kbps     00:36:37.595    32 683 kbps     00:36:34.225    29 141 kbps     00:36:29.187    93 790 bytes    492 003 bytes   00:36:37.995
10              0:36:51.108     0:03:14.561     24 103 kbps     40 076 kbps     00:38:10.621    33 828 kbps     00:38:10.054    29 995 kbps     00:38:09.987    100 528 bytes   489 735 bytes   00:38:18.062
11              0:40:05.669     0:03:48.761     20 332 kbps     34 873 kbps     00:43:48.993    32 156 kbps     00:43:45.956    28 487 kbps     00:43:42.152    84 802 bytes    455 816 bytes   00:40:44.341
12              0:43:54.431     0:03:38.585     20 823 kbps     30 377 kbps     00:46:41.298    26 826 kbps     00:43:57.634    24 992 kbps     00:46:06.230    86 850 bytes    473 182 bytes   00:46:04.061
13              0:47:33.016     0:05:55.755     22 333 kbps     34 684 kbps     00:52:33.517    30 306 kbps     00:52:31.314    27 838 kbps     00:52:27.711    93 145 bytes    494 015 bytes   00:50:45.776
14              0:53:28.772     0:02:07.126     24 100 kbps     37 534 kbps     00:54:20.056    30 554 kbps     00:54:17.087    28 633 kbps     00:54:17.087    100 519 bytes   486 565 bytes   00:54:31.167
15              0:55:35.899     0:04:40.780     21 222 kbps     30 500 kbps     00:58:49.158    28 803 kbps     00:58:45.121    27 951 kbps     00:58:41.818    88 513 bytes    480 854 bytes   00:58:59.702
16              1:00:16.679     0:05:14.414     20 111 kbps     38 835 kbps     01:04:37.740    32 531 kbps     01:04:34.937    30 891 kbps     01:04:29.932    83 880 bytes    485 586 bytes   01:04:21.424
17              1:05:31.093     0:03:44.924     28 062 kbps     45 439 kbps     01:07:48.831    37 093 kbps     01:07:44.994    34 153 kbps     01:07:44.593    117 040 bytes   495 235 bytes   01:09:02.104
18              1:09:16.018     0:03:51.064     30 111 kbps     43 018 kbps     01:09:54.256    36 542 kbps     01:11:40.796    36 185 kbps     01:11:35.791    125 586 bytes   496 282 bytes   01:10:34.997
19              1:13:07.082     0:02:09.028     31 870 kbps     40 931 kbps     01:14:54.256    34 648 kbps     01:14:20.956    34 196 kbps     01:14:15.317    132 926 bytes   496 220 bytes   01:13:38.914
20              1:15:16.111     0:02:42.028     27 961 kbps     42 517 kbps     01:17:03.085    34 881 kbps     01:17:03.051    34 024 kbps     01:17:02.951    116 619 bytes   496 198 bytes   01:17:14.529
21              1:17:58.140     0:03:41.988     26 101 kbps     39 542 kbps     01:21:19.674    34 918 kbps     01:21:31.519    34 107 kbps     01:21:28.350    108 861 bytes   493 756 bytes   01:19:15.984
22              1:21:40.128     0:06:40.199     23 008 kbps     38 724 kbps     01:22:40.889    36 022 kbps     01:21:46.434    35 416 kbps     01:21:42.497    95 962 bytes    496 284 bytes   01:22:21.903
23              1:28:20.328     0:01:59.452     27 016 kbps     37 828 kbps     01:30:09.036    33 280 kbps     01:30:06.634    32 587 kbps     01:30:03.030    112 681 bytes   495 861 bytes   01:29:57.058
24              1:30:19.781     0:03:11.591     24 587 kbps     43 779 kbps     01:33:01.375    37 512 kbps     01:33:01.075    35 114 kbps     01:32:59.307    102 547 bytes   495 492 bytes   01:32:39.053
25              1:33:31.372     0:04:08.047     24 331 kbps     37 656 kbps     01:35:41.302    34 029 kbps     01:35:37.398    31 665 kbps     01:35:01.796    101 481 bytes   495 293 bytes   01:35:30.991
26              1:37:39.420     0:03:14.894     21 398 kbps     29 559 kbps     01:40:30.624    26 647 kbps     01:38:44.118    25 247 kbps     01:38:39.847    89 247 bytes    451 993 bytes   01:40:16.910
27              1:40:54.314     0:05:09.609     20 941 kbps     35 079 kbps     01:45:48.675    31 558 kbps     01:45:46.239    27 380 kbps     01:45:41.935    87 341 bytes    457 492 bytes   01:43:58.865
28              1:46:03.924     0:01:56.249     20 910 kbps     43 253 kbps     01:47:31.545    34 821 kbps     01:47:28.875    31 577 kbps     01:47:24.471    87 212 bytes    493 988 bytes   01:47:28.942
29              1:48:00.173     0:01:27.120     20 359 kbps     41 775 kbps     01:49:13.413    31 253 kbps     01:49:12.445    27 755 kbps     01:49:11.578    84 912 bytes    480 969 bytes   01:49:14.881
30              1:49:27.294     0:03:28.441     24 447 kbps     38 473 kbps     01:50:53.113    30 564 kbps     01:50:50.610    28 053 kbps     01:51:29.816    101 966 bytes   485 741 bytes   01:52:38.785
31              1:52:55.735     0:04:07.981     23 712 kbps     37 055 kbps     01:56:28.581    33 898 kbps     01:56:25.712    29 236 kbps     01:56:21.207    98 898 bytes    494 889 bytes   01:55:15.909
32              1:57:03.716     0:04:24.964     28 972 kbps     42 703 kbps     01:58:01.574    35 368 kbps     02:00:23.316    34 017 kbps     01:59:59.592    120 839 bytes   495 868 bytes   02:00:34.660
33              2:01:28.681     0:05:32.131     26 441 kbps     39 630 kbps     02:06:13.766    34 626 kbps     02:06:34.753    34 168 kbps     02:06:29.782    110 281 bytes   496 323 bytes   02:05:15.541
34              2:07:00.813     0:06:52.478     26 795 kbps     45 623 kbps     02:11:00.352    36 879 kbps     02:13:14.953    36 197 kbps     02:13:11.116    111 759 bytes   493 278 bytes   02:13:19.791
35              2:13:53.291     0:02:52.505     23 336 kbps     35 849 kbps     02:15:52.177    30 397 kbps     02:15:21.480    29 051 kbps     02:15:17.242    97 331 bytes    492 695 bytes   02:16:11.062
36              2:16:45.797     0:04:20.560     24 015 kbps     36 395 kbps     02:17:33.445    35 077 kbps     02:17:30.041    34 268 kbps     02:17:29.241    100 163 bytes   487 036 bytes   02:17:32.043
37              2:21:06.357     0:01:52.612     25 423 kbps     36 197 kbps     02:21:32.550    34 904 kbps     02:21:31.516    33 315 kbps     02:21:31.349    106 035 bytes   482 878 bytes   02:21:43.728
38              2:22:58.970     0:10:52.451     22 837 kbps     42 694 kbps     02:30:51.509    36 270 kbps     02:32:14.391    35 409 kbps     02:32:13.924    95 250 bytes    495 331 bytes   02:23:26.831
39              2:33:51.422     0:04:45.084     26 237 kbps     44 648 kbps     02:36:28.011    36 972 kbps     02:37:27.004    35 117 kbps     02:34:28.392    109 442 bytes   496 212 bytes   02:36:20.838

STREAM DIAGNOSTICS:

File            PID             Type            Codec           Language                Seconds                 Bitrate                 Bytes           Packets
----            ---             ----            -----           --------                --------------          --------------          -------------   -----
00000.M2TS      4113 (0x1011)   0x1B            AVC                                     9516,374                23 907                  28 438 096 577  154 721 283
00000.M2TS      4352 (0x1100)   0x85            DTS-HD HR       fra (French)            9516,374                2 046                   2 433 294 160   14 271 520
00000.M2TS      4353 (0x1101)   0x80            LPCM            fra (French)            9516,374                6 917                   8 227 983 936   45 668 736
00000.M2TS      4354 (0x1102)   0x80            LPCM            fra (French)            9516,374                2 310                   2 747 735 616   15 222 912
00000.M2TS      4608 (0x1200)   0x90            PGS             fra (French)            9516,374                22                      25 883 539      149 505
00000.M2TS      4609 (0x1201)   0x90            PGS             eng (English)           9516,374                23                      27 044 084      155 824
00000.M2TS      4610 (0x1202)   0x90            PGS             deu (German)            9516,374                24                      28 729 493      164 973
00000.M2TS      4611 (0x1203)   0x90            PGS             spa (Spanish)           9516,374                21                      24 523 733      142 117
00000.M2TS      4612 (0x1204)   0x90            PGS             zho (Chinese)           9516,374                22                      26 543 490      153 094[/code]
<---- END FORUMS PASTE ---->

QUICK SUMMARY:

Disc Title: MANON
Disc Size: 46 403 905 640 bytes
Protection: AACS
BD-Java: No
Playlist: 00001.MPLS
Size: 44 346 003 456 bytes
Length: 2:38:36
Total Bitrate: 37,28 Mbps
Video: MPEG-4 AVC Video / 23906 kbps / 1080i / 29,970 fps / 16:9 / High Profile 4.1
Audio: French / LPCM Audio / 5.1 / 48 kHz / 6912 kbps / 24-bit
Audio: French / DTS-HD High-Res Audio / 5.1 / 48 kHz / 2046 kbps / 24-bit (DTS Core: 5.1 / 48 kHz / 1509 kbps / 24-bit)
Audio: French / LPCM Audio / 2.0 / 48 kHz / 2304 kbps / 24-bit
Subtitle: English / 22,734 kbps
Subtitle: Chinese / 22,314 kbps
Subtitle: French / 21,759 kbps
Subtitle: German / 24,151 kbps
Subtitle: Spanish / 20,616 kbps

********************
PLAYLIST: 00006.MPLS
********************

<--- BEGIN FORUMS PASTE --->
[code]Total   Video
Title                                                           Codec   Length  Movie Size      Disc Size       Bitrate Bitrate Main Audio Track                          Secondary Audio Track
-----                                                           ------  ------- --------------  --------------  ------- ------- ------------------                        ---------------------
00006.MPLS                                                      AVC     0:19:32 1 198 110 720   46 403 905 640  8,17    6,99    DD AC3 2.0 224Kbps[/code]
[code]DISC INFO:

Disc Title:     MANON
Disc Size:      46 403 905 640 bytes
Protection:     AACS
BD-Java:        No
BDInfo:         0.5.3

PLAYLIST REPORT:

Name:                   00006.MPLS
Length:                 0:19:32 (h:m:s)
Size:                   1 198 110 720 bytes
Total Bitrate:          8,17 Mbps

VIDEO:

Codec                   Bitrate             Description
-----                   -------             -----------
MPEG-4 AVC Video        6992 kbps           480i / 29,970 fps / 16:9 / High Profile 4.1

AUDIO:

Codec                           Language        Bitrate         Description
-----                           --------        -------         -----------
Dolby Digital Audio             Undetermined    224 kbps        2.0 / 48 kHz / 224 kbps / DN -4dB
Dolby Digital Audio             Undetermined    224 kbps        2.0 / 48 kHz / 224 kbps / DN -4dB
Dolby Digital Audio             Undetermined    224 kbps        2.0 / 48 kHz / 224 kbps / DN -4dB

SUBTITLES:

Codec                           Language        Bitrate         Description
-----                           --------        -------         -----------
Presentation Graphics           English         1,369 kbps
Presentation Graphics           Chinese         12,979 kbps
Presentation Graphics           French          19,664 kbps
Presentation Graphics           German          18,188 kbps
Presentation Graphics           Spanish         18,646 kbps

FILES:

Name            Time In         Length          Size            Total Bitrate
----            -------         ------          ----            -------------
00008.M2TS      0:00:00.000     0:19:31.537     1 198 086 144   8 181
00012.M2TS      0:19:31.537     0:00:01.000     24 576          196

CHAPTERS:

Number          Time In         Length          Avg Video Rate  Max 1-Sec Rate  Max 1-Sec Time  Max 5-Sec Rate  Max 5-Sec Time  Max 10Sec Rate  Max 10Sec Time  Avg Frame Size  Max Frame Size  Max Frame Time
------          -------         ------          --------------  --------------  --------------  --------------  --------------  --------------  --------------  --------------  --------------  --------------
1               0:00:00.000     0:19:31.537     6 998 kbps      13 881 kbps     00:18:30.209    12 609 kbps     00:06:14.640    11 917 kbps     00:06:12.572    29 188 bytes    145 970 bytes   00:13:29.675
2               0:19:31.537     0:00:01.000     48 kbps         0 kbps          00:00:00.000    0 kbps          00:00:00.000    0 kbps          00:00:00.000    208 bytes       521 bytes       00:19:32.137

STREAM DIAGNOSTICS:

File            PID             Type            Codec           Language                Seconds                 Bitrate                 Bytes           Packets
----            ---             ----            -----           --------                --------------          --------------          -------------   -----
00008.M2TS      4113 (0x1011)   0x1B            AVC                                     1171,437                6 999                   1 024 838 451   5 590 300
00008.M2TS      4352 (0x1100)   0x81            AC3             und (Undetermined)      1171,437                223                     32 690 560      182 425
00008.M2TS      4353 (0x1101)   0x81            AC3             und (Undetermined)      1171,437                223                     32 690 560      182 425
00008.M2TS      4354 (0x1102)   0x81            AC3             und (Undetermined)      1171,437                223                     32 690 560      182 425
00008.M2TS      4608 (0x1200)   0x90            PGS             fra (French)            1171,437                20                      2 882 088       17 356
00008.M2TS      4609 (0x1201)   0x90            PGS             eng (English)           1171,437                1                       200 720         1 238
00008.M2TS      4610 (0x1202)   0x90            PGS             deu (German)            1171,437                18                      2 665 822       16 027
00008.M2TS      4611 (0x1203)   0x90            PGS             spa (Spanish)           1171,437                19                      2 732 940       16 539
00008.M2TS      4612 (0x1204)   0x90            PGS             zho (Chinese)           1171,437                13                      1 902 260       12 032
00012.M2TS      4113 (0x1011)   0x1B            AVC                                     0,901                   58                      6 553           62[/code]
<---- END FORUMS PASTE ---->

QUICK SUMMARY:

Disc Title: MANON
Disc Size: 46 403 905 640 bytes
Protection: AACS
BD-Java: No
Playlist: 00006.MPLS
Size: 1 198 110 720 bytes
Length: 0:19:32
Total Bitrate: 8,17 Mbps
Video: MPEG-4 AVC Video / 6992 kbps / 480i / 29,970 fps / 16:9 / High Profile 4.1
Audio: Undetermined / Dolby Digital Audio / 2.0 / 48 kHz / 224 kbps / DN -4dB
Audio: Undetermined / Dolby Digital Audio / 2.0 / 48 kHz / 224 kbps / DN -4dB
Audio: Undetermined / Dolby Digital Audio / 2.0 / 48 kHz / 224 kbps / DN -4dB
Subtitle: English / 1,369 kbps
Subtitle: Chinese / 12,979 kbps
Subtitle: French / 19,664 kbps
Subtitle: German / 18,188 kbps
Subtitle: Spanish / 18,646 kbps

********************
PLAYLIST: 00005.MPLS
********************

<--- BEGIN FORUMS PASTE --->
[code]Total   Video
Title                                                           Codec   Length  Movie Size      Disc Size       Bitrate Bitrate Main Audio Track                          Secondary Audio Track
-----                                                           ------  ------- --------------  --------------  ------- ------- ------------------                        ---------------------
00005.MPLS                                                      AVC     0:04:29 255 522 816     46 403 905 640  7,59    6,97    DD AC3 2.0 224Kbps[/code]
[code]DISC INFO:

Disc Title:     MANON
Disc Size:      46 403 905 640 bytes
Protection:     AACS
BD-Java:        No
BDInfo:         0.5.3

PLAYLIST REPORT:

Name:                   00005.MPLS
Length:                 0:04:29 (h:m:s)
Size:                   255 522 816 bytes
Total Bitrate:          7,59 Mbps

VIDEO:

Codec                   Bitrate             Description
-----                   -------             -----------
MPEG-4 AVC Video        6969 kbps           480i / 29,970 fps / 16:9 / High Profile 4.1

AUDIO:

Codec                           Language        Bitrate         Description
-----                           --------        -------         -----------
Dolby Digital Audio             Undetermined    224 kbps        2.0 / 48 kHz / 224 kbps / DN -4dB

FILES:

Name            Time In         Length          Size            Total Bitrate
----            -------         ------          ----            -------------
00007.M2TS      0:00:00.000     0:04:28.301     255 498 240     7 618
00012.M2TS      0:04:28.301     0:00:01.000     24 576          196

CHAPTERS:

Number          Time In         Length          Avg Video Rate  Max 1-Sec Rate  Max 1-Sec Time  Max 5-Sec Rate  Max 5-Sec Time  Max 10Sec Rate  Max 10Sec Time  Avg Frame Size  Max Frame Size  Max Frame Time
------          -------         ------          --------------  --------------  --------------  --------------  --------------  --------------  --------------  --------------  --------------  --------------
1               0:00:00.000     0:04:28.301     6 995 kbps      11 380 kbps     00:02:40.727    10 809 kbps     00:02:40.026    10 284 kbps     00:02:37.423    29 171 bytes    143 822 bytes   00:01:33.860
2               0:04:28.301     0:00:01.000     48 kbps         0 kbps          00:00:00.000    0 kbps          00:00:00.000    0 kbps          00:00:00.000    208 bytes       521 bytes       00:04:28.901

STREAM DIAGNOSTICS:

File            PID             Type            Codec           Language                Seconds                 Bitrate                 Bytes           Packets
----            ---             ----            -----           --------                --------------          --------------          -------------   -----
00007.M2TS      4113 (0x1011)   0x1B            AVC                                     268,201                 6 998                   234 593 212     1 279 613
00007.M2TS      4352 (0x1100)   0x81            AC3             und (Undetermined)      268,201                 225                     7 539 840       42 075
00012.M2TS      4113 (0x1011)   0x1B            AVC                                     0,901                   58                      6 553           62[/code]
<---- END FORUMS PASTE ---->

QUICK SUMMARY:

Disc Title: MANON
Disc Size: 46 403 905 640 bytes
Protection: AACS
BD-Java: No
Playlist: 00005.MPLS
Size: 255 522 816 bytes
Length: 0:04:29
Total Bitrate: 7,59 Mbps
Video: MPEG-4 AVC Video / 6969 kbps / 480i / 29,970 fps / 16:9 / High Profile 4.1
Audio: Undetermined / Dolby Digital Audio / 2.0 / 48 kHz / 224 kbps / DN -4dB

********************
PLAYLIST: 00004.MPLS
********************

<--- BEGIN FORUMS PASTE --->
[code]Total   Video
Title                                                           Codec   Length  Movie Size      Disc Size       Bitrate Bitrate Main Audio Track                          Secondary Audio Track
-----                                                           ------  ------- --------------  --------------  ------- ------- ------------------                        ---------------------
00004.MPLS                                                      AVC     0:02:15 130 283 520     46 403 905 640  7,69    7,07    DD AC3 2.0 224Kbps[/code]
[code]DISC INFO:

Disc Title:     MANON
Disc Size:      46 403 905 640 bytes
Protection:     AACS
BD-Java:        No
BDInfo:         0.5.3

PLAYLIST REPORT:

Name:                   00004.MPLS
Length:                 0:02:15 (h:m:s)
Size:                   130 283 520 bytes
Total Bitrate:          7,69 Mbps

VIDEO:

Codec                   Bitrate             Description
-----                   -------             -----------
MPEG-4 AVC Video        7069 kbps           480i / 29,970 fps / 16:9 / High Profile 4.1

AUDIO:

Codec                           Language        Bitrate         Description
-----                           --------        -------         -----------
Dolby Digital Audio             Undetermined    224 kbps        2.0 / 48 kHz / 224 kbps / DN -4dB

FILES:

Name            Time In         Length          Size            Total Bitrate
----            -------         ------          ----            -------------
00010.M2TS      0:00:00.000     0:02:14.467     130 258 944     7 750
00012.M2TS      0:02:14.467     0:00:01.000     24 576          196

CHAPTERS:

Number          Time In         Length          Avg Video Rate  Max 1-Sec Rate  Max 1-Sec Time  Max 5-Sec Rate  Max 5-Sec Time  Max 10Sec Rate  Max 10Sec Time  Avg Frame Size  Max Frame Size  Max Frame Time
------          -------         ------          --------------  --------------  --------------  --------------  --------------  --------------  --------------  --------------  --------------  --------------
1               0:00:00.000     0:02:14.467     7 121 kbps      11 740 kbps     00:01:19.112    10 773 kbps     00:00:08.274    10 229 kbps     00:00:03.470    29 695 bytes    145 939 bytes   00:01:19.412
2               0:02:14.467     0:00:01.000     48 kbps         0 kbps          00:00:00.000    0 kbps          00:00:00.000    0 kbps          00:00:00.000    208 bytes       521 bytes       00:02:15.068

STREAM DIAGNOSTICS:

File            PID             Type            Codec           Language                Seconds                 Bitrate                 Bytes           Packets
----            ---             ----            -----           --------                --------------          --------------          -------------   -----
00010.M2TS      4113 (0x1011)   0x1B            AVC                                     134,334                 7 129                   119 700 323     652 875
00010.M2TS      4352 (0x1100)   0x81            AC3             und (Undetermined)      134,334                 224                     3 765 888       21 015
00012.M2TS      4113 (0x1011)   0x1B            AVC                                     0,901                   58                      6 553           62[/code]
<---- END FORUMS PASTE ---->

QUICK SUMMARY:

Disc Title: MANON
Disc Size: 46 403 905 640 bytes
Protection: AACS
BD-Java: No
Playlist: 00004.MPLS
Size: 130 283 520 bytes
Length: 0:02:15
Total Bitrate: 7,69 Mbps
Video: MPEG-4 AVC Video / 7069 kbps / 480i / 29,970 fps / 16:9 / High Profile 4.1
Audio: Undetermined / Dolby Digital Audio / 2.0 / 48 kHz / 224 kbps / DN -4dB

********************
PLAYLIST: 00007.MPLS
********************

<--- BEGIN FORUMS PASTE --->
[code]Total   Video
Title                                                           Codec   Length  Movie Size      Disc Size       Bitrate Bitrate Main Audio Track                          Secondary Audio Track
-----                                                           ------  ------- --------------  --------------  ------- ------- ------------------                        ---------------------
00007.MPLS                                                      AVC     0:02:46 157 495 296     46 403 905 640  7,57    6,95    DD AC3 2.0 224Kbps[/code]
[code]DISC INFO:

Disc Title:     MANON
Disc Size:      46 403 905 640 bytes
Protection:     AACS
BD-Java:        No
BDInfo:         0.5.3

PLAYLIST REPORT:

Name:                   00007.MPLS
Length:                 0:02:46 (h:m:s)
Size:                   157 495 296 bytes
Total Bitrate:          7,57 Mbps

VIDEO:

Codec                   Bitrate             Description
-----                   -------             -----------
MPEG-4 AVC Video        6948 kbps           480i / 29,970 fps / 4:3 / High Profile 4.1

AUDIO:

Codec                           Language        Bitrate         Description
-----                           --------        -------         -----------
Dolby Digital Audio             Undetermined    224 kbps        2.0 / 48 kHz / 224 kbps / DN -4dB

FILES:

Name            Time In         Length          Size            Total Bitrate
----            -------         ------          ----            -------------
00009.M2TS      0:00:00.000     0:02:45.498     157 470 720     7 612
00011.M2TS      0:02:45.498     0:00:01.000     24 576          196

CHAPTERS:

Number          Time In         Length          Avg Video Rate  Max 1-Sec Rate  Max 1-Sec Time  Max 5-Sec Rate  Max 5-Sec Time  Max 10Sec Rate  Max 10Sec Time  Avg Frame Size  Max Frame Size  Max Frame Time
------          -------         ------          --------------  --------------  --------------  --------------  --------------  --------------  --------------  --------------  --------------  --------------
1               0:00:00.000     0:02:45.498     6 990 kbps      13 045 kbps     00:02:04.958    10 959 kbps     00:02:02.489    10 631 kbps     00:01:58.251    29 146 bytes    142 352 bytes   00:00:23.056
2               0:02:45.498     0:00:01.000     48 kbps         0 kbps          00:00:00.000    0 kbps          00:00:00.000    0 kbps          00:00:00.000    208 bytes       521 bytes       00:02:46.099

STREAM DIAGNOSTICS:

File            PID             Type            Codec           Language                Seconds                 Bitrate                 Bytes           Packets
----            ---             ----            -----           --------                --------------          --------------          -------------   -----
00009.M2TS      4113 (0x1011)   0x1B            AVC                                     165,432                 6 992                   144 594 781     788 719
00009.M2TS      4352 (0x1100)   0x81            AC3             und (Undetermined)      165,432                 224                     4 634 112       25 860
00011.M2TS      4113 (0x1011)   0x1B            AVC                                     0,901                   58                      6 553           62[/code]
<---- END FORUMS PASTE ---->

QUICK SUMMARY:

Disc Title: MANON
Disc Size: 46 403 905 640 bytes
Protection: AACS
BD-Java: No
Playlist: 00007.MPLS
Size: 157 495 296 bytes
Length: 0:02:46
Total Bitrate: 7,57 Mbps
Video: MPEG-4 AVC Video / 6948 kbps / 480i / 29,970 fps / 4:3 / High Profile 4.1
Audio: Undetermined / Dolby Digital Audio / 2.0 / 48 kHz / 224 kbps / DN -4dB

********************
PLAYLIST: 00002.MPLS
********************

<--- BEGIN FORUMS PASTE --->
[code]Total   Video
Title                                                           Codec   Length  Movie Size      Disc Size       Bitrate Bitrate Main Audio Track                          Secondary Audio Track
-----                                                           ------  ------- --------------  --------------  ------- ------- ------------------                        ---------------------
00002.MPLS                                                      AVC     0:00:26 32 483 328      46 403 905 640  9,63    9,15[/code]
[code]DISC INFO:

Disc Title:     MANON
Disc Size:      46 403 905 640 bytes
Protection:     AACS
BD-Java:        No
BDInfo:         0.5.3

PLAYLIST REPORT:

Name:                   00002.MPLS
Length:                 0:00:26 (h:m:s)
Size:                   32 483 328 bytes
Total Bitrate:          9,63 Mbps

VIDEO:

Codec                   Bitrate             Description
-----                   -------             -----------
MPEG-4 AVC Video        9150 kbps           1080i / 29,970 fps / 16:9 / High Profile 4.1

FILES:

Name            Time In         Length          Size            Total Bitrate
----            -------         ------          ----            -------------
00003.M2TS      0:00:00.000     0:00:11.511     4 761 600       3 309
00002.M2TS      0:00:11.511     0:00:14.481     27 691 008      15 298
00005.M2TS      0:00:25.992     0:00:01.000     30 720          246

CHAPTERS:

Number          Time In         Length          Avg Video Rate  Max 1-Sec Rate  Max 1-Sec Time  Max 5-Sec Rate  Max 5-Sec Time  Max 10Sec Rate  Max 10Sec Time  Avg Frame Size  Max Frame Size  Max Frame Time
------          -------         ------          --------------  --------------  --------------  --------------  --------------  --------------  --------------  --------------  --------------  --------------
1               0:00:00.000     0:00:11.511     3 101 kbps      10 395 kbps     00:00:01.000    3 703 kbps      00:00:01.000    3 527 kbps      00:00:01.000    12 895 bytes    144 632 bytes   00:00:01.801
2               0:00:11.511     0:00:14.481     14 583 kbps     28 924 kbps     00:00:14.714    22 191 kbps     00:00:13.246    18 377 kbps     00:00:13.246    60 824 bytes    272 611 bytes   00:00:15.715
3               0:00:25.992     0:00:01.000     111 kbps        0 kbps          00:00:00.000    0 kbps          00:00:00.000    0 kbps          00:00:00.000    478 bytes       2 439 bytes     00:00:26.593

STREAM DIAGNOSTICS:

File            PID             Type            Codec           Language                Seconds                 Bitrate                 Bytes           Packets
----            ---             ----            -----           --------                --------------          --------------          -------------   -----
00003.M2TS      4113 (0x1011)   0x1B            AVC                                     11,411                  3 126                   4 459 353       24 395
00002.M2TS      4113 (0x1011)   0x1B            AVC                                     14,414                  14 651                  26 397 678      143 728
00005.M2TS      4113 (0x1011)   0x1B            AVC                                     0,901                   145                     16 298          112[/code]
<---- END FORUMS PASTE ---->

QUICK SUMMARY:

Disc Title: MANON
Disc Size: 46 403 905 640 bytes
Protection: AACS
BD-Java: No
Playlist: 00002.MPLS
Size: 32 483 328 bytes
Length: 0:00:26
Total Bitrate: 9,63 Mbps
Video: MPEG-4 AVC Video / 9150 kbps / 1080i / 29,970 fps / 16:9 / High Profile 4.1


Трекер:  [ 27-Сен-2011 21:12 ]

  

Скачать .torrent

Размер .torrent файла 219 KB


Размер: 43.21 GB
Хэш (hash) релиза: c710e0e6ca8771c3f061ea061408b3bce3fea0f1

Еще никто не оставлял запись к записи скачать торрент Массне - Манон Massenet - Manon . Будь первым!

!Обратная связь