Windows 10 | Karriere jobbsøking | Gary Carr

Скачать через торрент музыку Vincenzo Bellini: I Puritani Винченцо Беллини: "Пуритане" бесплатно без регистрации torrent

Статистика раздачи
Размер:  43.4 GB   |    Зарегистрирован:  7 лет   |    .torrent скачан:  175 раз   |   
Раздают:  1  
   
загрузка...
 
Автор Сообщение

L


Vincenzo Bellini: I Puritani / Винченцо Беллини: "Пуритане"

Год выпуска: 2007
Жанр: опера
Продолжительность: 02 ч. 35 мин. 15 с

Оркестр Метрополитен Опера / Metropolitan Opera Orchestra
Дирижер: Патрик Саммерс / Patrick Summers
Режиссер: Шарон Томас / Sharon Thomas

В ролях: Valerian Ruminski, Anna Netrebko, Maria Zifchak, Eric Cutler, Franco Vassallo, John Relyea, Eduardo Valdes, Metropolitan Opera Orchestra, Metropolitan Opera Chorus

Описание: Опера в трех действиях; либретто К. Пеполи по драме Ж. Ансело и К. Сентэна, созданной по мотивам романа В. Скотта.
Первая постановка: Милан, 1835 год.

Основные действующие лица: Эльвира (сопрано), Артуро/Лорд Артур Тальбот (тенор), Риккардо/Ричард Форт (баритон), Джорджо/Сэр Джордж (бас), Гуальтьеро/Лорд Уолтон (бас), Генриетта (сопрано), Бруно (тенор).

Плимут. 1645. Дочь одного из вождей пуритан лорда Уолтона Эльвира любит Артура Тальбота, приверженца Стюартов, отвечающего ей взаимностью. Руки Эльвиры домогается также молодой пуританин Ричард Форд. Уолтон симпатизирует Форту, но, вняв уговорам брата Джорджа, сочувствующего племяннице, соглашается на брак дочери с Артуром. Долг повелевает Артуру внезапно покинуть невесту, чтобы спасти скрывающуюся Генриетту, вдову казненного короля Карла I Стюарта. Ричард коварно убеждает Эльвиру, что Артур предал ее. Ничего не знающая о планах жениха, девушка верит в клевету и сходит с ума. Осужденный на казнь за спасение королевы, Артур с риском для жизни хочет проститься с невестой, к которой при виде жениха возвращается разум. Артур схвачен. Но появляется гонец с известием об окончательной победе пуритан во главе с Кромвелем над Стюартами и объявленной по этому поводу амнистией. Артур свободен и может соединиться с возлюбленной.

Качество: Blu-Ray (BD-50 Dual-Layer Disc)
Контейнер: BDMV
Видео: MPEG-4 AVC Video / 24601 kbps / 1080i / 29,970 fps / 16:9 / High Profile 4.1
Аудио #1: Italian LPCM 5.1 (48 kHz / 6912 kbps / 24-bit)
Аудио #2: Italian DTS-HD MA 5.1 (48 kHz / 2046 kbps / 24-bit)
Аудио #3: Italian LPCM 2.0 (48 kHz / 2304 kbps / 24-bit)
Субтитры : английские, французские, испанские, итальянские, немецкие

Релиз от: HD-Club
Лорд Уолтон, один из вождей пуритан (бас), Сэр Джордж, его брат (бас), Лорд Артур Тэлбот, приверженец Стюартов (тенор), Ричард Форд, пуританин (баритон), Браун, офицер (тенор), Генриетта, вдова казнённого короля Карла I, под именем леди Вилла-Форте (меццо-сопрано), Эльвира, дочь лорда Уолтона (сопрано).
Стражники, солдаты, герольды, сквайры, дамы, слуги.

Действие первое.
Широкий крепостной вал: видны стены, башни, укрепления и подъёмные мосты. Раннее утро. На бастионах меняется стража. Слышатся призывные фанфары труб. Воины-пуритане выражают преданность родине и готовность сражаться за отчизну. Звучит торжественный гимн.

Народ спешит на праздник по случаю предстоящего брака Эльвиры — дочери губернатора лорда Уолтона. Все выходят с цветами, прославляя красоту невесты. Мрачен лишь полковник Ричард Форд. Звуки веселья наполняют его душу тоской. Он поверяет другу, офицеру Брауну, тайну своей несчастной любви к Эльвире. Перед самой войной лорд Уолтон обещал ему руку дочери, но Эльвира любит молодого офицера Артура. Напрасно старается Браун успокоить Ричарда, отвлечь его мыслями о воинской славе, о подвигах во имя отчизны. Ричард не может забыть Эльвиру.

В замке беседуют Эльвира и её дядя Джордж. Джордж рассказывает девушке о ночном разговоре с Уолтоном, о том, как он, зная о любви Эльвиры к Артуру, добился согласия её отца на их брак.

Издалека слышится сигнал военной трубы — это Артур Тэлбот возвещает о своём приезде. Народ приветствует славного рыцаря. Эльвира с радостным нетерпением прислушивается к доносящимся звукам; вместе с ней её радость разделяет Джордж.

Оружейный зал в замке. Всё готово к свадебному торжеству. Собираются гости, оруженосцы Артура вносят подарки, среди них прекрасная вуаль для подвенечного наряда невесты. Хор славит красоту Эльвиры и доблесть Артура. Эльвира и Артур обращаются друг к другу со словами, полными нежности. Кажется, ничто не в силах омрачить радость взаимной любви.

В сопровождении Брауна появляется Генриетта; в замке она находится под стражей, её считают сторонницей Стюартов, возможно, даже их шпионкой. Никто не знает, что под вымышленным именем Вилла-Форте скрывается королева — вдова казнённого Карла I Стюарта. Сейчас английский парламент вызывает леди Вилла-Форте для объяснений, сопровождать её в пути будет лорд Уолтон. Уолтон благословляет Apтypa и Эльвиру, брак их свершится без него. Эльвира уходит вместе с дамами, чтобы одеть подвенечный наряд.

Артур и Генриетта остаются одни. Генриетта замечает сострадание на его лице. Артур глубоко взволнован судьбой несчастной — участь её, наверное, уже решена, ей грозит смерть. Он рассказывает Генриетте, что его отец погиб, служа Стюартам. Тронутая участием Артура, Генриетта называет себя. Артур полон решимости спасти королеву или умереть вместе с ней.

Появляется Эльвира в свадебном наряде — не одета только вуаль. Любуясь вуалью, Эльвира просит Генриетту примерить нарядный убор. Внезапная мысль осеняет Артура: в белой вуали Генриетту не узнают, стража примет её за Эльвиру — это путь к спасению. В то время как Эльвира заканчивает последние приготовления к свадебной церемонии, Артур посвящает Генриетту в свой план: они должны бежать.

Неожиданно появившийся Ричард преграждает им путь: он будет сражаться с Артуром за Эльвиру. Артур принимает вызов: в тот же момент Генриетта откидывает вуаль, и изумлённый Ричард убеждается, что перед ним не Эльвира. Теперь он не станет мешать беглецам. Медлить нельзя — уже доносятся голоса приглашённых на свадьбу. Артур и Генриетта убегают. Обитатели замка в смятении — все поражены бегством Артура; в крепости поднимается тревога.

Действие второе.
Обитатели замка в глубокой печали. Потрясённая горем Эльвира помешалась. Доктора уверены, что рассудок вернётся к ней только после нового большого потрясения – неожиданной радости или горя. Ричард сообщает: только что получено решение парламента – бежавший Артур лишён всех прав и приговорён к смертной казни: каждый, кто его встретит, обязан передать преступника в руки правосудия.

Появляется Эльвира – ее одежда в беспорядке, волосы распущены. Ей слышится голос Артура, зовущий её. Где же он сам? В отчаянии Эльвира молит вернуть ей Артура, или она умрёт. Потрясённые Джордж и Ричард пытаются её успокоить. Ричард и Джордж остаются одни. Джордж просит Ричарда спасти Артура: он должен, забыв о ревности, сделать это ради Эльвиры – она не переживёт гибели возлюбленного. В душе Ричарда происходит борьба: ведь Артур осуждён справедливо. В конце концов горячие мольбы Джорджа смягчают сердце Ричарда. Любовь к отчизне соединяет обоих воинов крепче дружбы. Торжественно клянутся они в верности родине.

Действие третье.
Парк перед замком. Вбегает Артур, которому удалось скрыться от преследований; он опять на родине. Артур слышит голос Эльвиры, доносящийся из замка, звуки романса пробуждают в его душе воспоминания о радости первых встреч с Эльвирой здесь, в парке, о милом облике возлюбленной. Пусть песня расскажет Эльвире о его любви.

Входит Эльвира – ей послышался голос Артура. Артур бросается к изумлённой Эльвире. Радостна встреча влюблённых; настал конец их страданиям. Артур объясняет Эльвире причину своего неожиданного отъезда. Долг рыцаря заставил его тогда покинуть невесту, чтобы спасти королеву. Артур и не думал об измене Эльвире, он горячо любит её.

Слышен барабанный бой, доносятся голоса воинов. Артур должен бежать, но Эльвира, в страхе, что Артур вновь покинет её, зовёт на помощь. Артур убеждается в безумии Эльвиры, он охвачен ужасом.

Появляются обитатели замка, Ричард, Джордж. Ричард сообщает Артуру о смертном приговоре, вынесенном ему парламентом. Услышав о казни, которая грозит любимому, Эльвира словно пробуждается от долгого сна – к ней возвращается сознание. В отчаянии она бросается к Артуру, как бы защищая его собой, – теперь, когда они снова вместе, она может потерять его уже навсегда. Артур умоляет пуритан отложить казнь хотя бы на время.

Прискакавший гонец вручает Джорджу и Ричарду послание парламента – Стюарты разбиты, пленённых врагов ждёт освобождение, печали и страдания позади. Все радуются счастью влюблённых.
(3. XI. 1801, Катания, Сицилия - 23. IX. 1835, Пюто, близ Парижа)
Сын Розарио Беллини, руководителя капеллы и учителя музыки в аристократических семействах города, Винченцо закончил Неаполитанскую консерваторию "Сан-Себастьяно", став её стипендиатом (его учителями были Фурно, Тритто, Цингарелли). В консерватории он знакомится с Меркаданте (своим будущим большим другом) и Флоримо (своим будущим биографом). В 1825 году по окончании курса представляет оперу "Адельсон и Сальвини". Не сходившая со сцены в течение года, опера понравилась Россини. В 1827 году в миланском театре "Ла Скала" успех ожидал оперу Беллини "Пират". В 1828 году в Генуе композитор знакомится с Джудиттой Канту из Турина: их связь будет длиться до 1833 года. Прославленного композитора окружает большое число поклонниц, среди которых Джудитта Гризи и Джудитта Паста, его великие исполнительницы. В Лондоне вновь с успехом были поставлены "Сомнамбула" и "Норма" с участием Малибран. В Париже композитора поддерживает Россини, который даёт ему множество советов во время сочинения оперы "Пуритане", принятой необычайно восторженно в 1835 году.
Оперы: Адельсон и Сальвини (1825, 1826-27), Бьянка и Джернандо (1826, под названием Бьянка и Фернандо; 1828), Пират (1827), Чужестранка (1829), Заира (1829), Капулетти и Монтекки (1830), Сомнамбула (1831), Норма (1831), Беатриче ди Тенда (1833), Пуритане (1835).
С самого начала Беллини сумел почувствовать то, что составляет его особую оригинальность: ученический опыт "Адельсон и Сальвини" дал не только радость первого успеха, но и возможность использовать многие страницы оперы в последующих музыкальных драмах ("Бьянка и Фернандо", "Пират", "Чужестранка", "Капулетти и Монтекки"). В опере "Бьянка и Фернандо" (имя героя было изменено на Джердандо, чтобы не оскорблять короля из династии Бурбонов) стиль, ещё находящийся под влиянием Россини, уже смог обеспечить разнообразное сочетание слова и музыки, их нежное, чистое и непринуждённое согласие, которым отмечены и удачные речетативы. Широкое дыхание арий, конструктивная основа многих сцен однотипной структуры (например, финала первого действия), усиливающих по мере вступления голосов мелодическое напряжение, свидетельствовали о подлинном вдохновении, уже могучем и способном одушевить музыкальную ткань.
В "Пирате" музыкальный язык становится глубже. Написанная на основе романтической трагедии Мэтьюрина, известного представителя "литературы ужасов", опера была поставлена с триумфом и укрепила реформаторские тенденции Беллини, проявившиеся в отказе от сухого речетатива с арией, которая была полностью или в значительной мере освобождена от обычной орнаментики и разнообразно разветвлялась, изображая безумие героини Имоджены, так что даже вокализы были подчинены требованиям изображения страдания. Наряду с партией сопрано, начинающей ряд знаменитых "безумных арий", следует отметить и другое важное достижение этой оперы: рождение героя-тенора (в его роли выступал Джованни Баттиста Рубини), честного, красивого, несчастного, мужественного и загадочного. Как пишет Франческо Пастура, страстный поклонник и исследователь творчества композитора, "Беллини принялся за сочинение музыки оперы с усердием человека, который знает, что от его работы зависит его будущее. Несомненно, что с этого времени он начал действовать по системе, о которой поведал впоследствии своему другу из Палермо Агостино Галло. Композитор заучивал стихи наизусть и, запершись в своей комнате, громко декламировал их, "стараясь перевоплотиться в персонажа, который произносит эти слова". Декламируя, Беллини внимательно слушал себя; различные изменения интонации постепенно превращались в музыкальные ноты..." После убедительного успеха "Пирата", обогащённый опытом и сильный не только своим мастерством, но и мастерством либреттиста - Романи, внёсшим свой вклад в либретто, Беллини представил в Генуе переделку "Бьянки и Фернандо" и подписал новый контракт с "Ла Скала"; прежде чем ознакомиться с новым либретто, он записал некоторые мотивы в надежде затем "эффектно" развить их в опере. На сей раз выбор пал на роман Прево д'Арленкура "Чужестранка", переделанный Дж. К. Козенцей в драму, которая была поставлена в 1827 году.
Опера Беллини, поставленная на сцене знаменитого миланского театра, была принята с восторгом, показалась выше "Пирата" и вызвала длительную полемику по вопросу о драматической музыке, напевной декламации или декламационном пении в их отношении к традиционной структуре, державшейся на более чистых формах. Критик газеты "Альгемайне музикалише цайтунг" увидел в "Чужестранке" тонко воссозданную немецкую атмосферу, и это наблюдение подтверждает современная критика, подчёркивая близость оперы романтизму "Вольного стрелка": эта близость проявляется и в загадочности главной героини, и в изображении связи человека с природой, и в использовании мотивов-реминисценций, служащих намерению композитора "сделать сюжетную нить всегда ощутимой и последовательной" (Липпман). Акцентированное произнесение слогов при широком дыхании порождает ариозные формы, отдельные номера растворяются в диалогических мелодиях, создающих непрерывный поток, "до чрезмерности мелодическую" последовательность (Камби). В целом есть что-то экспериментальное, нордическое, позднеклассическое, близкое по "тону к офорту, отливающему медью и серебром" (Тинтори).
После успехов опер "Капулетти и Монтекки", "Сомнамбула" и "Норма", несомненный провал ожидал в 1833 году оперу "Беатриче ди Тенда" по трагедии кремонского романтика К. Т. Фореса. Отметим по меньшей мере две причины неудачи: поспешность в работе и очень мрачный сюжет. Беллини обвинил либреттиста Романи, который в ответ обрушился с упрёками на композитора, что привело к разрыву между ними. Опера, между тем, не заслуживала такого возмущения, так как обладает немалыми достоинствами. Ансамбли и хоры отличаются великолепной фактурой, а сольные партии - обычной красотой рисунка. В какой-то мере она подготавливает следующую оперу - "Пуритане", помимо того что является одним из наиболее ярких предвосхищений стиля Верди.
В заключении приведём слова Бруно Кальи - они относятся к "Сомнамбуле", но значение их гораздо шире и приложимо ко всему творчеству композитора: "Беллини мечтал стать преемником Россини и не скрывал этого в своих письмах. Но он осознавал, как трудно приблизиться к сложной и развитой форме произведений позднего Россини. Гораздо более искушённый, чем принято его представлять, Беллини уже во время встречи с Россини в 1829 году увидел всю разделяющую их дистанцию и написал: "Я буду впредь сочинять самостоятельно, основываясь на здравом смысле, так как в пылу юности достаточно экспериментировал". Эта непростая фраза всё же ясно говорит об отказе от изысканности Россини ради так называемого "здравого смысла", то есть большей простоты формы".
Disc Title:
Disc Size: 46 603 673 624 bytes
Protection: AACS
BD-Java: No
BDInfo: 0.5.3

Notes:

BDINFO HOME:
Cinema Squid
http://www.cinemasquid.com/blu-ray/tools/bdinfo

INCLUDES FORUMS REPORT FOR:
AVS Forum Blu-ray Audio and Video Specifications Thread
http://www.avsforum.com/avs-vb/showthread.php?t=1155731

********************
PLAYLIST: 00000.MPLS
********************

<--- BEGIN FORUMS PASTE --->

Код:

Total   Video
Title                                                           Codec   Length  Movie Size      Disc Size       Bitrate Bitrate Main Audio Track                          Secondary Audio Track
-----                                                           ------  ------- --------------  --------------  ------- ------- ------------------                        ---------------------
00000.MPLS                                                      AVC     2:35:15 44 195 383 296  46 603 673 624  37,95   24,60   LPCM 5.1 6912Kbps (48kHz/24-bit)          DTS-HD Hi-Res 5.1 2046Kbps (48kHz/24-bit)
[code]DISC INFO:

Disc Title:
Disc Size:      46 603 673 624 bytes
Protection:     AACS
BD-Java:        No
BDInfo:         0.5.3

PLAYLIST REPORT:

Name:                   00000.MPLS
Length:                 2:35:15 (h:m:s)
Size:                   44 195 383 296 bytes
Total Bitrate:          37,95 Mbps

VIDEO:

Codec                   Bitrate             Description
-----                   -------             -----------
MPEG-4 AVC Video        24601 kbps          1080i / 29,970 fps / 16:9 / High Profile 4.1

AUDIO:

Codec                           Language        Bitrate         Description
-----                           --------        -------         -----------
LPCM Audio                      Italian         6912 kbps       5.1 / 48 kHz / 6912 kbps / 24-bit
DTS-HD High-Res Audio           Italian         2046 kbps       5.1 / 48 kHz / 2046 kbps / 24-bit (DTS Core: 5.1 / 48 kHz / 1509 kbps / 24-bit)
LPCM Audio                      Italian         2304 kbps       2.0 / 48 kHz / 2304 kbps / 24-bit

SUBTITLES:

Codec                           Language        Bitrate         Description
-----                           --------        -------         -----------
Presentation Graphics           English         9,888 kbps
Presentation Graphics           French          15,830 kbps
Presentation Graphics           German          16,190 kbps
Presentation Graphics           Italian         10,882 kbps
Presentation Graphics           Spanish         14,809 kbps

FILES:

Name            Time In         Length          Size            Total Bitrate
----            -------         ------          ----            -------------
00000.M2TS      0:00:00.000     1:13:53.429     21 340 735 488  38 509
00001.M2TS      1:13:53.429     1:21:21.009     22 854 617 088  37 459
00008.M2TS      2:35:14.438     0:00:01.000     30 720          246

CHAPTERS:

Number          Time In         Length          Avg Video Rate  Max 1-Sec Rate  Max 1-Sec Time  Max 5-Sec Rate  Max 5-Sec Time  Max 10Sec Rate  Max 10Sec Time  Avg Frame Size  Max Frame Size  Max Frame Time
------          -------         ------          --------------  --------------  --------------  --------------  --------------  --------------  --------------  --------------  --------------  --------------
1               0:00:00.000     0:02:52.505     22 524 kbps     37 107 kbps     00:02:38.791    34 250 kbps     00:02:34.787    31 989 kbps     00:02:29.782    93 926 bytes    480 889 bytes   00:02:27.680
2               0:02:52.505     0:04:14.187     24 885 kbps     39 811 kbps     00:06:46.806    36 301 kbps     00:06:44.003    33 437 kbps     00:03:08.054    103 790 bytes   478 920 bytes   00:06:44.504
3               0:07:06.692     0:02:20.106     24 018 kbps     34 611 kbps     00:07:15.001    30 519 kbps     00:08:53.065    29 998 kbps     00:07:07.193    100 173 bytes   391 661 bytes   00:07:15.368
4               0:09:26.799     0:02:08.394     28 160 kbps     42 677 kbps     00:09:32.004    34 959 kbps     00:10:07.306    34 210 kbps     00:10:05.938    117 452 bytes   456 374 bytes   00:10:38.838
5               0:11:35.194     0:02:57.844     25 344 kbps     31 943 kbps     00:11:47.740    30 777 kbps     00:11:44.336    30 057 kbps     00:11:44.136    105 707 bytes   336 905 bytes   00:14:02.741
6               0:14:33.038     0:07:18.404     24 812 kbps     39 576 kbps     00:18:54.700    34 565 kbps     00:16:07.299    33 503 kbps     00:16:02.294    103 486 bytes   457 889 bytes   00:16:12.271
7               0:21:51.443     0:05:37.370     24 434 kbps     37 949 kbps     00:25:08.206    33 131 kbps     00:27:23.808    30 076 kbps     00:27:18.803    101 911 bytes   368 134 bytes   00:22:17.969
8               0:27:28.813     0:03:15.862     26 292 kbps     34 191 kbps     00:27:31.416    33 240 kbps     00:27:29.247    29 212 kbps     00:27:28.813    109 658 bytes   341 412 bytes   00:27:36.021
9               0:30:44.676     0:02:27.981     25 029 kbps     35 000 kbps     00:32:44.329    32 458 kbps     00:33:05.984    28 343 kbps     00:32:39.090    104 393 bytes   349 803 bytes   00:33:08.553
10              0:33:12.657     0:02:35.688     25 931 kbps     37 272 kbps     00:35:23.721    35 469 kbps     00:35:20.351    34 718 kbps     00:35:20.318    108 153 bytes   469 882 bytes   00:35:24.122
11              0:35:48.346     0:05:59.192     25 635 kbps     32 878 kbps     00:39:48.586    30 421 kbps     00:41:34.491    29 189 kbps     00:36:06.364    106 919 bytes   425 725 bytes   00:36:12.770
12              0:41:47.538     0:03:09.622     28 797 kbps     38 498 kbps     00:41:57.715    34 701 kbps     00:44:28.298    33 522 kbps     00:44:25.596    120 106 bytes   457 972 bytes   00:44:18.555
13              0:44:57.161     0:03:21.968     29 266 kbps     38 866 kbps     00:46:15.139    35 262 kbps     00:46:12.870    33 779 kbps     00:46:11.969    122 063 bytes   449 027 bytes   00:45:50.848
14              0:48:19.129     0:04:18.992     28 291 kbps     42 302 kbps     00:50:25.822    35 826 kbps     00:50:25.555    33 864 kbps     00:50:24.021    117 996 bytes   479 535 bytes   00:50:32.829
15              0:52:38.121     0:05:07.340     28 191 kbps     38 784 kbps     00:56:54.110    36 601 kbps     00:56:50.106    33 707 kbps     00:56:48.638    117 581 bytes   481 547 bytes   00:56:51.975
16              0:57:45.462     0:03:21.401     26 066 kbps     44 790 kbps     00:58:00.643    36 579 kbps     00:57:59.642    32 299 kbps     00:58:36.446    108 716 bytes   399 644 bytes   00:58:40.450
17              1:01:06.863     0:05:52.418     23 222 kbps     34 157 kbps     01:04:07.710    32 343 kbps     01:04:03.673    29 408 kbps     01:04:01.103    96 853 bytes    395 666 bytes   01:04:05.508
18              1:06:59.281     0:02:42.562     25 074 kbps     35 675 kbps     01:07:21.804    32 027 kbps     01:08:50.893    30 367 kbps     01:07:42.525    104 582 bytes   400 273 bytes   01:08:56.499
19              1:09:41.844     0:04:11.584     14 315 kbps     21 711 kbps     01:09:59.361    20 522 kbps     01:09:56.025    18 680 kbps     01:09:51.353    59 704 bytes    256 170 bytes   01:09:58.527
20              1:13:53.429     0:04:10.183     20 619 kbps     31 426 kbps     01:17:07.723    26 801 kbps     01:17:07.122    25 562 kbps     01:17:02.317    85 997 bytes    316 664 bytes   01:15:23.652
21              1:18:03.612     0:07:10.563     23 378 kbps     30 756 kbps     01:19:33.869    28 333 kbps     01:19:40.175    27 205 kbps     01:19:34.569    97 504 bytes    336 016 bytes   01:23:21.329
22              1:25:14.175     0:02:49.068     23 875 kbps     30 191 kbps     01:26:27.081    28 762 kbps     01:26:30.752    28 346 kbps     01:26:25.780    99 578 bytes    322 549 bytes   01:27:02.016
23              1:28:03.244     0:11:50.142     25 179 kbps     42 108 kbps     01:37:04.485    33 709 kbps     01:31:42.230    32 952 kbps     01:36:56.110    105 016 bytes   478 453 bytes   01:31:44.799
24              1:39:53.387     0:06:00.126     23 375 kbps     37 347 kbps     01:44:40.807    33 126 kbps     01:44:37.037    30 775 kbps     01:44:31.832    97 495 bytes    356 921 bytes   01:42:11.825
25              1:45:53.513     0:06:49.942     22 834 kbps     30 911 kbps     01:50:32.492    28 863 kbps     01:47:23.537    28 063 kbps     01:50:28.888    95 235 bytes    335 763 bytes   01:50:37.664
26              1:52:43.456     0:05:33.766     23 749 kbps     35 222 kbps     01:56:22.642    32 913 kbps     01:56:21.941    30 637 kbps     01:56:20.740    99 051 bytes    403 126 bytes   01:56:22.108
27              1:58:17.223     0:01:46.105     13 655 kbps     21 986 kbps     01:58:18.925    17 372 kbps     01:58:42.815    15 636 kbps     01:59:02.135    56 951 bytes    265 954 bytes   01:58:47.053
28              2:00:03.329     0:05:15.081     24 215 kbps     35 664 kbps     02:03:51.123    33 714 kbps     02:03:43.916    32 889 kbps     02:03:42.715    100 999 bytes   380 115 bytes   02:02:22.001
29              2:05:18.410     0:05:19.686     25 122 kbps     36 143 kbps     02:06:15.768    34 784 kbps     02:06:12.965    32 840 kbps     02:06:12.164    104 779 bytes   402 325 bytes   02:06:13.165
30              2:10:38.096     0:06:19.378     26 527 kbps     38 926 kbps     02:12:47.559    35 234 kbps     02:12:47.092    33 563 kbps     02:12:42.120    110 641 bytes   435 946 bytes   02:15:52.310
31              2:16:57.475     0:04:00.940     23 845 kbps     31 570 kbps     02:19:54.018    29 678 kbps     02:19:51.716    28 630 kbps     02:19:52.117    99 455 bytes    335 348 bytes   02:19:56.087
32              2:20:58.416     0:03:01.948     25 865 kbps     34 742 kbps     02:21:36.521    31 213 kbps     02:23:21.392    30 566 kbps     02:23:18.122    107 878 bytes   340 107 bytes   02:22:15.827
33              2:24:00.365     0:05:47.346     25 119 kbps     32 950 kbps     02:29:33.731    31 086 kbps     02:26:01.219    29 504 kbps     02:28:50.054    104 766 bytes   408 185 bytes   02:27:06.584
34              2:29:47.712     0:04:38.111     26 112 kbps     41 724 kbps     02:30:25.216    33 105 kbps     02:30:23.347    32 324 kbps     02:30:16.207    108 907 bytes   471 583 bytes   02:31:23.874
35              2:34:25.823     0:00:48.615     27 091 kbps     38 986 kbps     02:35:04.495    32 768 kbps     02:34:43.941    30 879 kbps     02:34:38.535    112 992 bytes   398 992 bytes   02:35:03.494
36              2:35:14.438     0:00:01.001     111 kbps        0 kbps          00:00:00.000    0 kbps          00:00:00.000    0 kbps          00:00:00.000    478 bytes       2 439 bytes     02:35:15.039

STREAM DIAGNOSTICS:

File            PID             Type            Codec           Language                Seconds                 Bitrate                 Bytes           Packets
----            ---             ----            -----           --------                --------------          --------------          -------------   -----
00000.M2TS      4113 (0x1011)   0x1B            AVC                                     4433,329                25 126                  13 924 006 402  75 751 555
00000.M2TS      4352 (0x1100)   0x85            DTS-HD HR       ita (Italian)           4433,329                2 045                   1 133 353 056   6 647 232
00000.M2TS      4353 (0x1101)   0x80            LPCM            ita (Italian)           4433,329                6 915                   3 832 326 608   21 271 008
00000.M2TS      4354 (0x1102)   0x80            LPCM            ita (Italian)           4433,329                2 309                   1 279 807 092   7 090 344
00000.M2TS      4608 (0x1200)   0x90            PGS             ita (Italian)           4433,329                12                      6 458 771       37 796
00000.M2TS      4609 (0x1201)   0x90            PGS             eng (English)           4433,329                10                      5 624 522       32 642
00000.M2TS      4610 (0x1202)   0x90            PGS             deu (German)            4433,329                18                      10 229 494      58 771
00000.M2TS      4611 (0x1203)   0x90            PGS             fra (French)            4433,329                18                      10 020 821      57 624
00000.M2TS      4612 (0x1204)   0x90            PGS             spa (Spanish)           4433,329                17                      9 380 754       54 157
00001.M2TS      4113 (0x1011)   0x1B            AVC                                     4880,876                24 130                  14 721 876 675  80 095 734
00001.M2TS      4352 (0x1100)   0x85            DTS-HD HR       ita (Italian)           4880,876                2 046                   1 248 324 616   7 321 552
00001.M2TS      4353 (0x1101)   0x80            LPCM            ita (Italian)           4880,876                6 919                   4 221 097 448   23 428 848
00001.M2TS      4354 (0x1102)   0x80            LPCM            ita (Italian)           4880,876                2 310                   1 409 635 688   7 809 616
00001.M2TS      4608 (0x1200)   0x90            PGS             ita (Italian)           4880,876                10                      6 211 987       36 555
00001.M2TS      4609 (0x1201)   0x90            PGS             eng (English)           4880,876                10                      5 888 803       34 278
00001.M2TS      4610 (0x1202)   0x90            PGS             deu (German)            4880,876                14                      8 622 271       49 852
00001.M2TS      4611 (0x1203)   0x90            PGS             fra (French)            4880,876                14                      8 412 043       48 735
00001.M2TS      4612 (0x1204)   0x90            PGS             spa (Spanish)           4880,876                13                      7 863 817       45 745
00008.M2TS      4113 (0x1011)   0x1B            AVC                                     0,901                   145                     16 298          112[/code]
<---- END FORUMS PASTE ---->

QUICK SUMMARY:

Disc Title:
Disc Size: 46 603 673 624 bytes
Protection: AACS
BD-Java: No
Playlist: 00000.MPLS
Size: 44 195 383 296 bytes
Length: 2:35:15
Total Bitrate: 37,95 Mbps
Video: MPEG-4 AVC Video / 24601 kbps / 1080i / 29,970 fps / 16:9 / High Profile 4.1
Audio: Italian / LPCM Audio / 5.1 / 48 kHz / 6912 kbps / 24-bit
Audio: Italian / DTS-HD High-Res Audio / 5.1 / 48 kHz / 2046 kbps / 24-bit (DTS Core: 5.1 / 48 kHz / 1509 kbps / 24-bit)
Audio: Italian / LPCM Audio / 2.0 / 48 kHz / 2304 kbps / 24-bit
Subtitle: English / 9,888 kbps
Subtitle: French / 15,830 kbps
Subtitle: German / 16,190 kbps
Subtitle: Italian / 10,882 kbps
Subtitle: Spanish / 14,809 kbps

********************
PLAYLIST: 00003.MPLS
********************

<--- BEGIN FORUMS PASTE --->
[code]Total   Video
Title                                                           Codec   Length  Movie Size      Disc Size       Bitrate Bitrate Main Audio Track                          Secondary Audio Track
-----                                                           ------  ------- --------------  --------------  ------- ------- ------------------                        ---------------------
00003.MPLS                                                      AVC     0:13:26 1 688 125 440   46 603 673 624  16,76   15,09   DD AC3 2.0 224Kbps[/code]
[code]DISC INFO:

Disc Title:
Disc Size:      46 603 673 624 bytes
Protection:     AACS
BD-Java:        No
BDInfo:         0.5.3

PLAYLIST REPORT:

Name:                   00003.MPLS
Length:                 0:13:26 (h:m:s)
Size:                   1 688 125 440 bytes
Total Bitrate:          16,76 Mbps

VIDEO:

Codec                   Bitrate             Description
-----                   -------             -----------
MPEG-4 AVC Video        15094 kbps          1080i / 29,970 fps / 16:9 / High Profile 4.1

AUDIO:

Codec                           Language        Bitrate         Description
-----                           --------        -------         -----------
Dolby Digital Audio             English         224 kbps        2.0 / 48 kHz / 224 kbps / DN -4dB
Dolby Digital Audio             English         224 kbps        2.0 / 48 kHz / 224 kbps / DN -4dB
Dolby Digital Audio             English         224 kbps        2.0 / 48 kHz / 224 kbps / DN -4dB

SUBTITLES:

Codec                           Language        Bitrate         Description
-----                           --------        -------         -----------
Presentation Graphics           English         0,078 kbps
Presentation Graphics           French          58,971 kbps
Presentation Graphics           German          65,303 kbps
Presentation Graphics           Italian         0,078 kbps
Presentation Graphics           Spanish         66,486 kbps

FILES:

Name            Time In         Length          Size            Total Bitrate
----            -------         ------          ----            -------------
00003.M2TS      0:00:00.000     0:13:25.004     1 688 094 720   16 776
00008.M2TS      0:13:25.004     0:00:01.000     30 720          246

CHAPTERS:

Number          Time In         Length          Avg Video Rate  Max 1-Sec Rate  Max 1-Sec Time  Max 5-Sec Rate  Max 5-Sec Time  Max 10Sec Rate  Max 10Sec Time  Avg Frame Size  Max Frame Size  Max Frame Time
------          -------         ------          --------------  --------------  --------------  --------------  --------------  --------------  --------------  --------------  --------------  --------------
1               0:00:00.000     0:13:25.004     15 112 kbps     32 677 kbps     00:04:01.674    27 092 kbps     00:03:59.572    21 165 kbps     00:03:59.572    63 028 bytes    436 069 bytes   00:04:02.642
2               0:13:25.004     0:00:01.000     111 kbps        0 kbps          00:00:00.000    0 kbps          00:00:00.000    0 kbps          00:00:00.000    478 bytes       2 439 bytes     00:13:25.604

STREAM DIAGNOSTICS:

File            PID             Type            Codec           Language                Seconds                 Bitrate                 Bytes           Packets
----            ---             ----            -----           --------                --------------          --------------          -------------   -----
00003.M2TS      4113 (0x1011)   0x1B            AVC                                     804,904                 15 114                  1 520 681 755   8 278 782
00003.M2TS      4352 (0x1100)   0x81            AC3             eng (English)           804,904                 224                     22 540 672      125 785
00003.M2TS      4353 (0x1101)   0x81            AC3             eng (English)           804,904                 224                     22 540 672      125 785
00003.M2TS      4354 (0x1102)   0x81            AC3             eng (English)           804,904                 224                     22 540 672      125 785
00003.M2TS      4608 (0x1200)   0x90            PGS             ita (Italian)           804,904                 0                       7 842           50
00003.M2TS      4609 (0x1201)   0x90            PGS             eng (English)           804,904                 0                       7 842           50
00003.M2TS      4610 (0x1202)   0x90            PGS             deu (German)            804,904                 65                      6 579 282       37 252
00003.M2TS      4611 (0x1203)   0x90            PGS             fra (French)            804,904                 59                      5 941 318       33 780
00003.M2TS      4612 (0x1204)   0x90            PGS             spa (Spanish)           804,904                 67                      6 698 518       37 891
00008.M2TS      4113 (0x1011)   0x1B            AVC                                     0,901                   145                     16 298          112[/code]
<---- END FORUMS PASTE ---->

QUICK SUMMARY:

Disc Title:
Disc Size: 46 603 673 624 bytes
Protection: AACS
BD-Java: No
Playlist: 00003.MPLS
Size: 1 688 125 440 bytes
Length: 0:13:26
Total Bitrate: 16,76 Mbps
Video: MPEG-4 AVC Video / 15094 kbps / 1080i / 29,970 fps / 16:9 / High Profile 4.1
Audio: English / Dolby Digital Audio / 2.0 / 48 kHz / 224 kbps / DN -4dB
Audio: English / Dolby Digital Audio / 2.0 / 48 kHz / 224 kbps / DN -4dB
Audio: English / Dolby Digital Audio / 2.0 / 48 kHz / 224 kbps / DN -4dB
Subtitle: English / 0,078 kbps
Subtitle: French / 58,971 kbps
Subtitle: German / 65,303 kbps
Subtitle: Italian / 0,078 kbps
Subtitle: Spanish / 66,486 kbps

********************
PLAYLIST: 00002.MPLS
********************

<--- BEGIN FORUMS PASTE --->
[code]Total   Video
Title                                                           Codec   Length  Movie Size      Disc Size       Bitrate Bitrate Main Audio Track                          Secondary Audio Track
-----                                                           ------  ------- --------------  --------------  ------- ------- ------------------                        ---------------------
00002.MPLS                                                      AVC     0:03:10 395 151 360     46 603 673 624  16,58   14,91   DD AC3 2.0 224Kbps[/code]
[code]DISC INFO:

Disc Title:
Disc Size:      46 603 673 624 bytes
Protection:     AACS
BD-Java:        No
BDInfo:         0.5.3

PLAYLIST REPORT:

Name:                   00002.MPLS
Length:                 0:03:10 (h:m:s)
Size:                   395 151 360 bytes
Total Bitrate:          16,58 Mbps

VIDEO:

Codec                   Bitrate             Description
-----                   -------             -----------
MPEG-4 AVC Video        14906 kbps          1080i / 29,970 fps / 16:9 / High Profile 4.1

AUDIO:

Codec                           Language        Bitrate         Description
-----                           --------        -------         -----------
Dolby Digital Audio             English         224 kbps        2.0 / 48 kHz / 224 kbps / DN -4dB
Dolby Digital Audio             English         224 kbps        2.0 / 48 kHz / 224 kbps / DN -4dB
Dolby Digital Audio             English         224 kbps        2.0 / 48 kHz / 224 kbps / DN -4dB

SUBTITLES:

Codec                           Language        Bitrate         Description
-----                           --------        -------         -----------
Presentation Graphics           English         0,329 kbps
Presentation Graphics           French          65,982 kbps
Presentation Graphics           German          70,530 kbps
Presentation Graphics           Italian         0,329 kbps
Presentation Graphics           Spanish         75,664 kbps

FILES:

Name            Time In         Length          Size            Total Bitrate
----            -------         ------          ----            -------------
00002.M2TS      0:00:00.000     0:03:09.656     395 120 640     16 667
00008.M2TS      0:03:09.656     0:00:01.000     30 720          246

CHAPTERS:

Number          Time In         Length          Avg Video Rate  Max 1-Sec Rate  Max 1-Sec Time  Max 5-Sec Rate  Max 5-Sec Time  Max 10Sec Rate  Max 10Sec Time  Avg Frame Size  Max Frame Size  Max Frame Time
------          -------         ------          --------------  --------------  --------------  --------------  --------------  --------------  --------------  --------------  --------------  --------------
1               0:00:00.000     0:03:09.656     14 984 kbps     21 194 kbps     00:02:51.237    18 701 kbps     00:00:07.006    17 907 kbps     00:00:07.173    62 484 bytes    282 032 bytes   00:02:30.850
2               0:03:09.656     0:00:01.000     111 kbps        0 kbps          00:00:00.000    0 kbps          00:00:00.000    0 kbps          00:00:00.000    478 bytes       2 439 bytes     00:03:10.256

STREAM DIAGNOSTICS:

File            PID             Type            Codec           Language                Seconds                 Bitrate                 Bytes           Packets
----            ---             ----            -----           --------                --------------          --------------          -------------   -----
00002.M2TS      4113 (0x1011)   0x1B            AVC                                     189,589                 14 989                  355 221 059     1 933 889
00002.M2TS      4352 (0x1100)   0x81            AC3             eng (English)           189,589                 224                     5 311 488       29 640
00002.M2TS      4353 (0x1101)   0x81            AC3             eng (English)           189,589                 224                     5 311 488       29 640
00002.M2TS      4354 (0x1102)   0x81            AC3             eng (English)           189,589                 224                     5 311 488       29 640
00002.M2TS      4608 (0x1200)   0x90            PGS             ita (Italian)           189,589                 0                       7 842           50
00002.M2TS      4609 (0x1201)   0x90            PGS             eng (English)           189,589                 0                       7 842           50
00002.M2TS      4610 (0x1202)   0x90            PGS             deu (German)            189,589                 71                      1 680 879       9 516
00002.M2TS      4611 (0x1203)   0x90            PGS             fra (French)            189,589                 66                      1 572 501       8 923
00002.M2TS      4612 (0x1204)   0x90            PGS             spa (Spanish)           189,589                 76                      1 803 236       10 178
00008.M2TS      4113 (0x1011)   0x1B            AVC                                     0,901                   145                     16 298          112[/code]
<---- END FORUMS PASTE ---->

QUICK SUMMARY:

Disc Title:
Disc Size: 46 603 673 624 bytes
Protection: AACS
BD-Java: No
Playlist: 00002.MPLS
Size: 395 151 360 bytes
Length: 0:03:10
Total Bitrate: 16,58 Mbps
Video: MPEG-4 AVC Video / 14906 kbps / 1080i / 29,970 fps / 16:9 / High Profile 4.1
Audio: English / Dolby Digital Audio / 2.0 / 48 kHz / 224 kbps / DN -4dB
Audio: English / Dolby Digital Audio / 2.0 / 48 kHz / 224 kbps / DN -4dB
Audio: English / Dolby Digital Audio / 2.0 / 48 kHz / 224 kbps / DN -4dB
Subtitle: English / 0,329 kbps
Subtitle: French / 65,982 kbps
Subtitle: German / 70,530 kbps
Subtitle: Italian / 0,329 kbps
Subtitle: Spanish / 75,664 kbps

********************
PLAYLIST: 00004.MPLS
********************

<--- BEGIN FORUMS PASTE --->
[code]Total   Video
Title                                                           Codec   Length  Movie Size      Disc Size       Bitrate Bitrate Main Audio Track                          Secondary Audio Track
-----                                                           ------  ------- --------------  --------------  ------- ------- ------------------                        ---------------------
00004.MPLS                                                      AVC     0:00:26 29 921 280      46 603 673 624  9,02    8,56[/code]
[code]DISC INFO:

Disc Title:
Disc Size:      46 603 673 624 bytes
Protection:     AACS
BD-Java:        No
BDInfo:         0.5.3

PLAYLIST REPORT:

Name:                   00004.MPLS
Length:                 0:00:26 (h:m:s)
Size:                   29 921 280 bytes
Total Bitrate:          9,02 Mbps

VIDEO:

Codec                   Bitrate             Description
-----                   -------             -----------
MPEG-4 AVC Video        8560 kbps           1080i / 29,970 fps / 16:9 / High Profile 4.1

FILES:

Name            Time In         Length          Size            Total Bitrate
----            -------         ------          ----            -------------
00006.M2TS      0:00:00.000     0:00:11.511     4 761 600       3 309
00007.M2TS      0:00:11.511     0:00:14.014     25 128 960      14 345
00008.M2TS      0:00:25.525     0:00:01.000     30 720          246

CHAPTERS:

Number          Time In         Length          Avg Video Rate  Max 1-Sec Rate  Max 1-Sec Time  Max 5-Sec Rate  Max 5-Sec Time  Max 10Sec Rate  Max 10Sec Time  Avg Frame Size  Max Frame Size  Max Frame Time
------          -------         ------          --------------  --------------  --------------  --------------  --------------  --------------  --------------  --------------  --------------  --------------
1               0:00:00.000     0:00:11.511     3 100 kbps      10 395 kbps     00:00:01.000    3 703 kbps      00:00:01.000    3 527 kbps      00:00:01.000    12 893 bytes    144 632 bytes   00:00:01.801
2               0:00:11.511     0:00:14.014     13 648 kbps     21 060 kbps     00:00:22.622    16 996 kbps     00:00:19.285    16 663 kbps     00:00:13.880    56 925 bytes    195 863 bytes   00:00:21.721
3               0:00:25.525     0:00:01.000     111 kbps        0 kbps          00:00:00.000    0 kbps          00:00:00.000    0 kbps          00:00:00.000    478 bytes       2 439 bytes     00:00:26.126

STREAM DIAGNOSTICS:

File            PID             Type            Codec           Language                Seconds                 Bitrate                 Bytes           Packets
----            ---             ----            -----           --------                --------------          --------------          -------------   -----
00006.M2TS      4113 (0x1011)   0x1B            AVC                                     11,411                  3 126                   4 459 353       24 395
00007.M2TS      4113 (0x1011)   0x1B            AVC                                     13,914                  13 746                  23 907 496      130 409
00008.M2TS      4113 (0x1011)   0x1B            AVC                                     0,901                   145                     16 298          112[/code]
<---- END FORUMS PASTE ---->

QUICK SUMMARY:

Disc Title:
Disc Size: 46 603 673 624 bytes
Protection: AACS
BD-Java: No
Playlist: 00004.MPLS
Size: 29 921 280 bytes
Length: 0:00:26
Total Bitrate: 9,02 Mbps
Video: MPEG-4 AVC Video / 8560 kbps / 1080i / 29,970 fps / 16:9 / High Profile 4.1


Трекер:  [ 27-Сен-2011 21:12 ]

  

Скачать .torrent

Размер .torrent файла 222 KB


Размер: 43.4 GB
Хэш (hash) релиза: 041b00f74a98a913048fe7e9b13feba704af9e4e

Еще никто не оставлял запись к записи скачать торрент Vincenzo Bellini: I Puritani Винченцо Беллини: "Пуритане" . Будь первым!

!Обратная связь