False Flag | FHX Clash Of Clans | Endomondo Sports Tracker

Скачать через торрент музыку Richard Strauss - Der Rosenkavalier Рихард Штраус - Кавалер розы бесплатно без регистрации torrent

Статистика раздачи
Размер:  45.1 GB   |    Зарегистрирован:  7 лет   |    .torrent скачан:  136 раз   |   
Раздают:  1  
   
загрузка...
 
Автор Сообщение

L


Рихард Штраус: "Кавалер розы" / Richard Strauss: Der Rosenkavalier

Год выпуска: 2009
Жанр: опера
Продолжительность: 03 ч. 31 мин. 08 сек.
В ролях: Renée Fleming (Marschallin), Franz Hawlata (Baron Ochs), Sophie Koch (Octavian), Diana Damrau (Sophie), Jonas Kaufmann (The Italian Tenor), Franz Grundheber (Faninal), Jane Henschel (Annina), Munich Philharmonic Orchestra
Режиссер: Herbert Wernicke
Дирижер: Christian Thielemann

Качество: Blu-Ray (BD-50 Dual-Layer Disc)
Контейнер: BDMV
Видео: MPEG-4 AVC Video / 19995 kbps / 1920x1080i / 29,970 fps / 16:9 / High Profile 4.1
Аудио #1: German DTS-HD MA 5.1 (48 kHz / 3895 kbps / 24-bit)
Аудио #2: German LPCM 2.0 (48 kHz / 2304 kbps / 24-bit)
Субтитры : английские, французские, испанские, немецкие, китайские

Релиз от:
Disc Title:
Disc Size: 48 423 955 384 bytes
Protection: AACS
BD-Java: No
BDInfo: 0.5.3

Notes:

BDINFO HOME:
Cinema Squid
http://www.cinemasquid.com/blu-ray/tools/bdinfo

INCLUDES FORUMS REPORT FOR:
AVS Forum Blu-ray Audio and Video Specifications Thread
http://www.avsforum.com/avs-vb/showthread.php?t=1155731

********************
PLAYLIST: 00003.MPLS
********************

<--- BEGIN FORUMS PASTE --->

Код:

Total   Video
Title                                                           Codec   Length  Movie Size      Disc Size       Bitrate Bitrate Main Audio Track                          Secondary Audio Track
-----                                                           ------  ------- --------------  --------------  ------- ------- ------------------                        ---------------------
00003.MPLS                                                      AVC     3:31:08 29 146 116 096  48 423 955 384  18,41   20,00   DTS-HD Master 5.1 3895Kbps (48kHz/24-bit) LPCM 2.0 2304Kbps (48kHz/24-bit)
[code]DISC INFO:

Disc Title:
Disc Size:      48 423 955 384 bytes
Protection:     AACS
BD-Java:        No
BDInfo:         0.5.3

PLAYLIST REPORT:

Name:                   00003.MPLS
Length:                 3:31:08 (h:m:s)
Size:                   29 146 116 096 bytes
Total Bitrate:          18,41 Mbps

VIDEO:

Codec                   Bitrate             Description
-----                   -------             -----------
MPEG-4 AVC Video        19995 kbps          1080i / 29,970 fps / 16:9 / High Profile 4.1

AUDIO:

Codec                           Language        Bitrate         Description
-----                           --------        -------         -----------
DTS-HD Master Audio             German          3895 kbps       5.1 / 48 kHz / 3895 kbps / 24-bit (DTS Core: 5.1 / 48 kHz / 1509 kbps / 24-bit)
LPCM Audio                      German          2304 kbps       2.0 / 48 kHz / 2304 kbps / 24-bit

SUBTITLES:

Codec                           Language        Bitrate         Description
-----                           --------        -------         -----------
Presentation Graphics           English         23,598 kbps
Presentation Graphics           Chinese         31,301 kbps
Presentation Graphics           French          23,596 kbps
Presentation Graphics           German          27,238 kbps
Presentation Graphics           Spanish         25,278 kbps

FILES:

Name            Time In         Length          Size            Total Bitrate
----            -------         ------          ----            -------------
00008.M2TS      0:00:00.000     1:17:21.003     16 130 426 880  27 805
00009.M2TS      1:17:21.003     1:02:11.427     13 015 689 216  27 905
00010.M2TS      2:19:32.430     1:11:36.158     0               0

CHAPTERS:

Number          Time In         Length          Avg Video Rate  Max 1-Sec Rate  Max 1-Sec Time  Max 5-Sec Rate  Max 5-Sec Time  Max 10Sec Rate  Max 10Sec Time  Avg Frame Size  Max Frame Size  Max Frame Time
------          -------         ------          --------------  --------------  --------------  --------------  --------------  --------------  --------------  --------------  --------------  --------------
1               0:00:00.000     0:01:59.319     17 353 kbps     28 060 kbps     00:00:22.889    21 391 kbps     00:00:39.239    21 100 kbps     00:00:32.232    72 354 bytes    350 983 bytes   00:00:23.857
2               0:01:59.319     0:07:36.722     16 363 kbps     25 094 kbps     00:03:05.852    21 788 kbps     00:09:27.233    21 377 kbps     00:02:27.280    68 247 bytes    310 546 bytes   00:09:31.237
3               0:09:36.042     0:02:48.535     20 593 kbps     28 845 kbps     00:11:56.148    27 058 kbps     00:11:54.613    25 084 kbps     00:11:49.642    85 890 bytes    353 018 bytes   00:12:10.062
4               0:12:24.577     0:09:03.376     18 798 kbps     27 476 kbps     00:21:26.418    25 046 kbps     00:21:22.514    23 414 kbps     00:21:17.943    78 405 bytes    326 249 bytes   00:15:25.557
5               0:21:27.953     0:08:52.698     22 796 kbps     30 936 kbps     00:26:34.092    28 856 kbps     00:27:00.251    27 477 kbps     00:26:56.681    95 079 bytes    358 298 bytes   00:27:02.921
6               0:30:20.652     0:07:35.621     22 800 kbps     30 273 kbps     00:34:13.051    28 539 kbps     00:31:43.635    26 888 kbps     00:34:10.481    95 094 bytes    327 372 bytes   00:33:42.687
7               0:37:56.274     0:03:15.862     26 306 kbps     32 967 kbps     00:39:50.588    30 754 kbps     00:39:47.184    30 550 kbps     00:38:21.799    109 720 bytes   380 650 bytes   00:40:14.478
8               0:41:12.136     0:09:33.239     23 827 kbps     32 695 kbps     00:47:55.005    30 977 kbps     00:47:30.881    30 639 kbps     00:47:14.665    99 377 bytes    371 341 bytes   00:43:21.065
9               0:50:45.375     0:05:37.336     17 595 kbps     25 515 kbps     00:51:50.373    25 116 kbps     00:51:47.671    24 692 kbps     00:51:47.704    73 384 bytes    321 252 bytes   00:51:59.716
10              0:56:22.712     0:06:14.374     17 756 kbps     27 110 kbps     00:56:27.050    25 410 kbps     00:56:24.347    24 572 kbps     00:56:22.712    74 058 bytes    324 978 bytes   00:56:28.718
11              1:02:37.086     0:14:43.916     17 709 kbps     29 315 kbps     01:14:21.590    27 327 kbps     01:14:21.590    25 656 kbps     01:13:41.450    73 860 bytes    353 791 bytes   01:13:46.555
12              1:17:21.003     0:05:44.177     19 193 kbps     29 843 kbps     01:17:50.699    28 130 kbps     01:17:48.096    26 451 kbps     01:17:47.295    80 049 bytes    315 820 bytes   01:21:14.970
13              1:23:05.180     0:07:46.466     16 253 kbps     24 844 kbps     01:25:19.747    22 410 kbps     01:25:19.747    21 818 kbps     01:30:41.636    67 787 bytes    278 013 bytes   01:26:48.102
14              1:30:51.646     0:04:19.926     19 691 kbps     25 176 kbps     01:33:55.863    23 108 kbps     01:32:42.924    21 892 kbps     01:32:38.619    82 129 bytes    292 891 bytes   01:34:17.651
15              1:35:11.572     0:10:12.111     21 011 kbps     28 347 kbps     01:36:31.719    27 772 kbps     01:36:31.785    25 135 kbps     01:36:27.114    87 633 bytes    322 311 bytes   01:35:23.584
16              1:45:23.684     0:07:14.000     20 341 kbps     27 863 kbps     01:51:59.212    25 571 kbps     01:51:55.141    24 692 kbps     01:51:50.136    84 841 bytes    316 186 bytes   01:50:50.143
17              1:52:37.684     0:14:25.464     21 575 kbps     32 980 kbps     01:57:54.867    31 027 kbps     01:57:04.217    30 275 kbps     01:57:47.360    89 985 bytes    350 258 bytes   02:04:25.624
18              2:07:03.148     0:05:40.840     20 185 kbps     27 542 kbps     02:09:58.824    26 379 kbps     02:09:54.987    25 906 kbps     02:09:49.815    84 188 bytes    332 611 bytes   02:10:24.983
19              2:12:43.989     1:18:24.599     1 712 kbps      25 084 kbps     02:15:47.906    24 167 kbps     02:15:48.106    22 753 kbps     02:17:55.600    82 251 bytes    317 942 bytes   02:15:59.784

STREAM DIAGNOSTICS:

File            PID             Type            Codec           Language                Seconds                 Bitrate                 Bytes           Packets
----            ---             ----            -----           --------                --------------          --------------          -------------   -----
00008.M2TS      4113 (0x1011)   0x1B            AVC                                     4640,870                19 998                  11 600 783 922  63 128 817
00008.M2TS      4352 (0x1100)   0x80            LPCM            deu (German)            4640,870                2 310                   1 340 322 244   7 425 608
00008.M2TS      4353 (0x1101)   0x86            DTS-HD MA       deu (German)            4640,870                3 858                   2 238 047 924   12 886 983
00008.M2TS      4608 (0x1200)   0x90            PGS             eng (English)           4640,870                23                      13 214 631      76 467
00008.M2TS      4609 (0x1201)   0x90            PGS             fra (French)            4640,870                23                      13 186 719      76 320
00008.M2TS      4610 (0x1202)   0x90            PGS             deu (German)            4640,870                26                      15 320 479      87 927
00008.M2TS      4611 (0x1203)   0x90            PGS             spa (Spanish)           4640,870                24                      14 173 704      81 675
00008.M2TS      4612 (0x1204)   0x90            PGS             zho (Chinese)           4640,870                28                      16 316 795      93 334
00009.M2TS      4113 (0x1011)   0x1B            AVC                                     3731,294                19 994                  9 325 250 267   50 746 086
00009.M2TS      4352 (0x1100)   0x80            LPCM            deu (German)            3731,294                2 310                   1 077 636 984   5 970 288
00009.M2TS      4353 (0x1101)   0x86            DTS-HD MA       deu (German)            3731,294                3 942                   1 838 797 860   10 575 269
00009.M2TS      4608 (0x1200)   0x90            PGS             eng (English)           3731,294                25                      11 481 643      66 523
00009.M2TS      4609 (0x1201)   0x90            PGS             fra (French)            3731,294                25                      11 507 317      66 679
00009.M2TS      4610 (0x1202)   0x90            PGS             deu (German)            3731,294                28                      13 185 112      75 785
00009.M2TS      4611 (0x1203)   0x90            PGS             spa (Spanish)           3731,294                26                      12 281 519      70 892
00009.M2TS      4612 (0x1204)   0x90            PGS             zho (Chinese)           3731,294                35                      16 440 865      93 480
00010.M2TS      4113 (0x1011)   0x1B            AVC                                     4296,025                19 990                  10 734 778 224  58 416 137
00010.M2TS      4352 (0x1100)   0x80            LPCM            deu (German)            4296,025                2 310                   1 240 731 008   6 873 856
00010.M2TS      4353 (0x1101)   0x86            DTS-HD MA       deu (German)            4296,025                3 921                   2 105 396 396   12 112 558
00010.M2TS      4608 (0x1200)   0x90            PGS             eng (English)           4296,025                16                      8 393 642       48 836
00010.M2TS      4609 (0x1201)   0x90            PGS             fra (French)            4296,025                16                      8 497 060       49 406
00010.M2TS      4610 (0x1202)   0x90            PGS             deu (German)            4296,025                18                      9 838 135       56 689
00010.M2TS      4611 (0x1203)   0x90            PGS             spa (Spanish)           4296,025                17                      9 149 440       52 944
00010.M2TS      4612 (0x1204)   0x90            PGS             zho (Chinese)           4296,025                19                      10 461 551      60 065[/code]
<---- END FORUMS PASTE ---->

QUICK SUMMARY:

Disc Title:
Disc Size: 48 423 955 384 bytes
Protection: AACS
BD-Java: No
Playlist: 00003.MPLS
Size: 29 146 116 096 bytes
Length: 3:31:08
Total Bitrate: 18,41 Mbps
Video: MPEG-4 AVC Video / 19995 kbps / 1080i / 29,970 fps / 16:9 / High Profile 4.1
Audio: German / DTS-HD Master Audio / 5.1 / 48 kHz / 3895 kbps / 24-bit (DTS Core: 5.1 / 48 kHz / 1509 kbps / 24-bit)
Audio: German / LPCM Audio / 2.0 / 48 kHz / 2304 kbps / 24-bit
Subtitle: English / 23,598 kbps
Subtitle: Chinese / 31,301 kbps
Subtitle: French / 23,596 kbps
Subtitle: German / 27,238 kbps
Subtitle: Spanish / 25,278 kbps

********************
PLAYLIST: 00004.MPLS
********************

<--- BEGIN FORUMS PASTE --->
[code]Total   Video
Title                                                           Codec   Length  Movie Size      Disc Size       Bitrate Bitrate Main Audio Track                          Secondary Audio Track
-----                                                           ------  ------- --------------  --------------  ------- ------- ------------------                        ---------------------
00004.MPLS                                                      AVC     0:32:06 3 634 544 640   48 423 955 384  15,10   12,00   LPCM 2.0 2304Kbps (48kHz/24-bit)[/code]
[code]DISC INFO:

Disc Title:
Disc Size:      48 423 955 384 bytes
Protection:     AACS
BD-Java:        No
BDInfo:         0.5.3

PLAYLIST REPORT:

Name:                   00004.MPLS
Length:                 0:32:06 (h:m:s)
Size:                   3 634 544 640 bytes
Total Bitrate:          15,10 Mbps

VIDEO:

Codec                   Bitrate             Description
-----                   -------             -----------
MPEG-4 AVC Video        11997 kbps          1080i / 29,970 fps / 16:9 / High Profile 4.1

AUDIO:

Codec                           Language        Bitrate         Description
-----                           --------        -------         -----------
LPCM Audio                      English         2304 kbps       2.0 / 48 kHz / 2304 kbps / 24-bit

SUBTITLES:

Codec                           Language        Bitrate         Description
-----                           --------        -------         -----------
Presentation Graphics           English         38,771 kbps

FILES:

Name            Time In         Length          Size            Total Bitrate
----            -------         ------          ----            -------------
00011.M2TS      0:00:00.000     0:32:06.024     3 634 544 640   15 097

CHAPTERS:

Number          Time In         Length          Avg Video Rate  Max 1-Sec Rate  Max 1-Sec Time  Max 5-Sec Rate  Max 5-Sec Time  Max 10Sec Rate  Max 10Sec Time  Avg Frame Size  Max Frame Size  Max Frame Time
------          -------         ------          --------------  --------------  --------------  --------------  --------------  --------------  --------------  --------------  --------------  --------------
1               0:00:00.000     0:05:40.206     11 628 kbps     22 552 kbps     00:05:07.473    21 037 kbps     00:05:05.104    19 586 kbps     00:05:03.436    48 492 bytes    319 958 bytes   00:05:08.474
2               0:05:40.206     0:04:15.054     12 701 kbps     27 415 kbps     00:06:22.281    21 387 kbps     00:06:29.856    20 228 kbps     00:06:22.248    52 975 bytes    321 147 bytes   00:06:24.150
3               0:09:55.261     0:04:47.020     12 690 kbps     24 196 kbps     00:12:53.906    22 702 kbps     00:12:51.103    20 930 kbps     00:12:50.436    52 929 bytes    296 194 bytes   00:12:54.673
4               0:14:42.281     0:04:12.785     11 004 kbps     19 072 kbps     00:18:17.930    16 473 kbps     00:18:13.792    15 149 kbps     00:18:33.812    45 894 bytes    238 035 bytes   00:14:57.830
5               0:18:55.067     0:05:50.483     13 073 kbps     25 079 kbps     00:20:27.192    22 916 kbps     00:20:23.855    22 007 kbps     00:20:11.944    54 525 bytes    304 747 bytes   00:22:59.511
6               0:24:45.550     0:03:32.345     11 774 kbps     18 530 kbps     00:27:42.761    17 405 kbps     00:25:28.593    17 351 kbps     00:25:28.593    49 106 bytes    266 986 bytes   00:28:16.895
7               0:28:17.896     0:03:48.127     10 542 kbps     19 404 kbps     00:28:19.497    16 406 kbps     00:30:28.226    15 126 kbps     00:30:23.254    43 975 bytes    272 326 bytes   00:28:18.897

STREAM DIAGNOSTICS:

File            PID             Type            Codec           Language                Seconds                 Bitrate                 Bytes           Packets
----            ---             ----            -----           --------                --------------          --------------          -------------   -----
00011.M2TS      4113 (0x1011)   0x1B            AVC                                     1925,924                11 997                  2 888 255 640   15 730 628
00011.M2TS      4352 (0x1100)   0x80            LPCM            eng (English)           1925,924                2 311                   556 236 020     3 081 640
00011.M2TS      4608 (0x1200)   0x90            PGS             eng (English)           1925,924                39                      9 334 315       53 117[/code]
<---- END FORUMS PASTE ---->

QUICK SUMMARY:

Disc Title:
Disc Size: 48 423 955 384 bytes
Protection: AACS
BD-Java: No
Playlist: 00004.MPLS
Size: 3 634 544 640 bytes
Length: 0:32:06
Total Bitrate: 15,10 Mbps
Video: MPEG-4 AVC Video / 11997 kbps / 1080i / 29,970 fps / 16:9 / High Profile 4.1
Audio: English / LPCM Audio / 2.0 / 48 kHz / 2304 kbps / 24-bit
Subtitle: English / 38,771 kbps

********************
PLAYLIST: 00000.MPLS
********************

<--- BEGIN FORUMS PASTE --->
[code]Total   Video
Title                                                           Codec   Length  Movie Size      Disc Size       Bitrate Bitrate Main Audio Track                          Secondary Audio Track
-----                                                           ------  ------- --------------  --------------  ------- ------- ------------------                        ---------------------
00000.MPLS                                                      AVC     0:00:36 121 442 304     48 423 955 384  26,40   20,68   DTS-HD Master 5.1 2904Kbps (48kHz/24-bit) LPCM 2.0 2304Kbps (48kHz/24-bit)[/code]
[code]DISC INFO:

Disc Title:
Disc Size:      48 423 955 384 bytes
Protection:     AACS
BD-Java:        No
BDInfo:         0.5.3

PLAYLIST REPORT:

Name:                   00000.MPLS
Length:                 0:00:36 (h:m:s)
Size:                   121 442 304 bytes
Total Bitrate:          26,40 Mbps

VIDEO:

Codec                   Bitrate             Description
-----                   -------             -----------
MPEG-4 AVC Video        20681 kbps          1080i / 29,970 fps / 16:9 / High Profile 4.1

AUDIO:

Codec                           Language        Bitrate         Description
-----                           --------        -------         -----------
DTS-HD Master Audio             Miscellaneous languages2904 kbps       5.1 / 48 kHz / 2904 kbps / 24-bit (DTS Core: 5.1 / 48 kHz / 1509 kbps / 24-bit)
LPCM Audio                      Miscellaneous languages2304 kbps       2.0 / 48 kHz / 2304 kbps / 24-bit

FILES:

Name            Time In         Length          Size            Total Bitrate
----            -------         ------          ----            -------------
00000.M2TS      0:00:00.000     0:00:12.512     23 543 808      15 053
00001.M2TS      0:00:12.512     0:00:23.289     97 867 776      33 617
00002.M2TS      0:00:35.802     0:00:01.000     30 720          246

CHAPTERS:

Number          Time In         Length          Avg Video Rate  Max 1-Sec Rate  Max 1-Sec Time  Max 5-Sec Rate  Max 5-Sec Time  Max 10Sec Rate  Max 10Sec Time  Avg Frame Size  Max Frame Size  Max Frame Time
------          -------         ------          --------------  --------------  --------------  --------------  --------------  --------------  --------------  --------------  --------------  --------------
1               0:00:00.000     0:00:35.802     21 256 kbps     29 763 kbps     00:00:22.188    28 204 kbps     00:00:19.586    27 568 kbps     00:00:16.349    88 574 bytes    347 568 bytes   00:00:24.524
2               0:00:35.802     0:00:01.000     111 kbps        0 kbps          00:00:00.000    0 kbps          00:00:00.000    0 kbps          00:00:00.000    478 bytes       2 435 bytes     00:00:36.403

STREAM DIAGNOSTICS:

File            PID             Type            Codec           Language                Seconds                 Bitrate                 Bytes           Packets
----            ---             ----            -----           --------                --------------          --------------          -------------   -----
00000.M2TS      4113 (0x1011)   0x1B            AVC                                     12,379                  14 507                  22 447 353      122 204
00001.M2TS      4113 (0x1011)   0x1B            AVC                                     23,156                  25 109                  72 679 016      395 421
00001.M2TS      4352 (0x1100)   0x80            LPCM            mis (Miscellaneous languages)23,156                  2 324                   6 726 152       37 264
00001.M2TS      4353 (0x1101)   0x86            DTS-HD MA       mis (Miscellaneous languages)23,156                  4 615                   13 359 112      76 232
00002.M2TS      4113 (0x1011)   0x1B            AVC                                     0,901                   145                     16 291          112[/code]
<---- END FORUMS PASTE ---->

QUICK SUMMARY:

Disc Title:
Disc Size: 48 423 955 384 bytes
Protection: AACS
BD-Java: No
Playlist: 00000.MPLS
Size: 121 442 304 bytes
Length: 0:00:36
Total Bitrate: 26,40 Mbps
Video: MPEG-4 AVC Video / 20681 kbps / 1080i / 29,970 fps / 16:9 / High Profile 4.1
Audio: Miscellaneous languages / DTS-HD Master Audio / 5.1 / 48 kHz / 2904 kbps / 24-bit (DTS Core: 5.1 / 48 kHz / 1509 kbps / 24-bit)
Audio: Miscellaneous languages / LPCM Audio / 2.0 / 48 kHz / 2304 kbps / 24-bit


Трекер:  [ 27-Сен-2011 21:08 ]

  

Скачать .torrent

Размер .torrent файла 231 KB


Размер: 45.1 GB
Хэш (hash) релиза: 7ab60f2a325d99a434f659a67728476c5237b116

Еще никто не оставлял запись к записи скачать торрент Richard Strauss - Der Rosenkavalier Рихард Штраус - Кавалер розы . Будь первым!

!Обратная связь