Regarder | Hawthorne – Angeli in corsia Serie TV Streaming Download | Major Crimes

Скачать через торрент музыку Чайковский - Пиковая дама Tchaikovsky - Pique Dame бесплатно без регистрации torrent

Статистика раздачи
Размер:  40.98 GB   |    Зарегистрирован:  7 лет   |    .torrent скачан:  140 раз   |   
Раздают:  1  
   
загрузка...
 
Автор Сообщение

L


Чайковский - Пиковая дама / Tchaikovsky - Pique Dame

Год выпуска: 2010

Лейбл: Opus Arte
Страна-производитель: Великобритания
Жанр: Opera
Продолжительность: 02:54:50
Язык: Русский
Субтитры: English, Catalan, French, German, Spanish
Режиссер: Gilberto Deflo
Исполнители:
Hermann: Misha Didyk
Liza: Emily Magee
Count Tomsky: Lado Ataneli
Prince Yeletsky: Ludovic Tézier
Polina: Elena Zaremba
Countess: Ewa Podleś
Chaplitsky: Mikhaïl Vekua
Chekalinsky: Francisco Vas
Masha: Claudia Schneider

Chorus Intermezzo
Escolania de Montserrat
Symphony Orchestra and chorus of the Gran Teatre del Liceu
Дирижер: Michael Boder

Доп. информация:
Recorded at the Gran Teatre del Liceu, Barcelona, 30 June & 1 July 2010.

За предоставленный материал большое спасибо pirxnew
Disc Title: Tchaikovsky Pique Dame
Disc Size: 44 000 122 084 bytes
Protection: AACS
BD-Java: No
BDInfo: 0.5.6

Notes:

BDINFO HOME:
Cinema Squid
http://www.cinemasquid.com/blu-ray/tools/bdinfo

INCLUDES FORUMS REPORT FOR:
AVS Forum Blu-ray Audio and Video Specifications Thread
http://www.avsforum.com/avs-vb/showthread.php?t=1155731

********************
PLAYLIST: 00000.MPLS
********************

<--- BEGIN FORUMS PASTE --->

Код:

Total   Video
Title                                                           Codec   Length  Movie Size      Disc Size       Bitrate Bitrate Main Audio Track                          Secondary Audio Track
-----                                                           ------  ------- --------------  --------------  ------- ------- ------------------                        ---------------------
00000.MPLS                                                      AVC     2:54:50 43 566 993 408  44 000 122 084  33,22   24,99   DTS-HD Master 5.1 4115Kbps (48kHz/24-bit) LPCM 2.0 2304Kbps (48kHz/24-bit)
[code]DISC INFO:

Disc Title:     Tchaikovsky Pique Dame
Disc Size:      44 000 122 084 bytes
Protection:     AACS
BD-Java:        No
BDInfo:         0.5.6

PLAYLIST REPORT:

Name:                   00000.MPLS
Length:                 2:54:50 (h:m:s)
Size:                   43 566 993 408 bytes
Total Bitrate:          33,22 Mbps

VIDEO:

Codec                   Bitrate             Description
-----                   -------             -----------
MPEG-4 AVC Video        24993 kbps          1080i / 29,970 fps / 16:9 / High Profile 4.1

AUDIO:

Codec                           Language        Bitrate         Description
-----                           --------        -------         -----------
DTS-HD Master Audio             Russian         4115 kbps       5.1 / 48 kHz / 4115 kbps / 24-bit (DTS Core: 5.1 / 48 kHz / 1509 kbps / 24-bit)
LPCM Audio                      Russian         2304 kbps       2.0 / 48 kHz / 2304 kbps / 24-bit

SUBTITLES:

Codec                           Language        Bitrate         Description
-----                           --------        -------         -----------
Presentation Graphics           English         13,268 kbps
Presentation Graphics           Catalan         12,964 kbps
Presentation Graphics           French          14,812 kbps
Presentation Graphics           German          13,442 kbps
Presentation Graphics           Spanish         13,635 kbps

FILES:

Name            Time In         Length          Size            Total Bitrate
----            -------         ------          ----            -------------
00000.M2TS      0:00:00.000     1:05:51.380     16 382 453 760  33 168
00001.M2TS      1:05:51.380     0:56:45.368     14 153 539 584  33 250
00002.M2TS      2:02:36.749     0:52:13.864     13 031 000 064  33 265

CHAPTERS:

Number          Time In         Length          Avg Video Rate  Max 1-Sec Rate  Max 1-Sec Time  Max 5-Sec Rate  Max 5-Sec Time  Max 10Sec Rate  Max 10Sec Time  Avg Frame Size  Max Frame Size  Max Frame Time
------          -------         ------          --------------  --------------  --------------  --------------  --------------  --------------  --------------  --------------  --------------  --------------
1               0:00:00.000     0:02:31.584     25 326 kbps     36 470 kbps     00:00:20.587    35 097 kbps     00:00:01.334    35 066 kbps     00:00:01.334    105 606 bytes   427 073 bytes   00:00:11.011
2               0:02:31.584     0:03:31.544     22 069 kbps     29 939 kbps     00:04:09.949    28 732 kbps     00:05:30.697    27 832 kbps     00:05:25.758    92 045 bytes    300 104 bytes   00:03:50.830
3               0:06:03.129     0:05:12.812     29 704 kbps     37 587 kbps     00:09:17.623    35 172 kbps     00:09:37.143    35 010 kbps     00:09:40.146    123 890 bytes   386 613 bytes   00:09:50.156
4               0:11:15.941     0:03:17.931     21 577 kbps     36 268 kbps     00:14:28.934    35 210 kbps     00:14:25.931    34 809 kbps     00:14:21.927    89 993 bytes    333 669 bytes   00:13:04.517
5               0:14:33.873     0:04:14.454     26 077 kbps     36 797 kbps     00:18:46.758    33 754 kbps     00:18:43.322    32 165 kbps     00:17:23.542    108 763 bytes   357 573 bytes   00:18:47.593
6               0:18:48.327     0:05:17.417     30 988 kbps     37 095 kbps     00:21:54.212    35 198 kbps     00:22:04.122    35 036 kbps     00:20:18.350    129 244 bytes   379 094 bytes   00:19:54.593
7               0:24:05.744     0:02:52.438     26 394 kbps     36 229 kbps     00:26:18.677    33 896 kbps     00:26:14.673    32 019 kbps     00:25:57.622    110 085 bytes   330 483 bytes   00:26:19.477
8               0:26:58.183     0:05:26.592     19 012 kbps     28 163 kbps     00:27:12.330    25 957 kbps     00:27:10.261    23 718 kbps     00:27:08.660    79 295 bytes    261 093 bytes   00:31:04.996
9               0:32:24.776     0:04:09.616     21 098 kbps     31 705 kbps     00:34:39.043    26 978 kbps     00:33:46.758    25 883 kbps     00:34:39.143    87 997 bytes    322 535 bytes   00:35:45.743
10              0:36:34.392     0:02:42.695     19 485 kbps     27 179 kbps     00:38:45.389    25 891 kbps     00:38:43.387    25 333 kbps     00:38:41.752    81 269 bytes    329 440 bytes   00:38:48.092
11              0:39:17.088     0:05:15.481     30 084 kbps     36 464 kbps     00:42:56.640    35 146 kbps     00:42:54.772    34 977 kbps     00:42:13.330    125 474 bytes   337 292 bytes   00:42:17.167
12              0:44:32.569     0:01:31.524     24 574 kbps     33 783 kbps     00:44:37.041    30 098 kbps     00:44:34.838    26 876 kbps     00:44:32.569    102 493 bytes   340 394 bytes   00:45:05.536
13              0:46:04.094     0:07:01.921     25 661 kbps     36 502 kbps     00:46:19.443    35 066 kbps     00:46:14.071    34 970 kbps     00:46:11.468    107 029 bytes   323 578 bytes   00:46:07.097
14              0:53:06.016     0:06:33.659     26 636 kbps     34 471 kbps     00:57:35.785    32 326 kbps     00:57:32.749    30 277 kbps     00:58:29.672    111 094 bytes   328 580 bytes   00:56:33.356
15              0:59:39.676     0:02:59.078     19 868 kbps     36 012 kbps     00:59:56.426    33 973 kbps     00:59:52.355    31 781 kbps     00:59:49.385    82 866 bytes    293 147 bytes   00:59:53.957
16              1:02:38.755     0:03:12.625     22 996 kbps     36 640 kbps     01:05:41.037    35 100 kbps     01:05:41.103    31 681 kbps     01:05:38.501    95 913 bytes    438 513 bytes   01:05:41.637
17              1:05:51.380     0:04:45.018     26 128 kbps     36 458 kbps     01:09:58.994    35 020 kbps     01:09:56.191    34 464 kbps     01:10:03.265    108 973 bytes   354 582 bytes   01:09:40.576
18              1:10:36.398     0:02:26.813     19 751 kbps     35 269 kbps     01:10:46.609    33 391 kbps     01:10:44.607    31 305 kbps     01:10:40.169    82 376 bytes    342 237 bytes   01:10:48.978
19              1:13:03.212     0:05:12.145     17 615 kbps     25 709 kbps     01:17:50.832    25 183 kbps     01:15:48.043    23 695 kbps     01:15:44.406    73 470 bytes    260 404 bytes   01:17:52.667
20              1:18:15.357     0:02:22.876     17 634 kbps     36 298 kbps     01:20:36.264    25 573 kbps     01:19:31.433    23 864 kbps     01:19:26.461    73 549 bytes    359 249 bytes   01:20:36.298
21              1:20:38.233     0:02:07.460     34 366 kbps     36 611 kbps     01:22:32.981    35 175 kbps     01:20:57.452    34 953 kbps     01:21:09.497    143 335 bytes   376 590 bytes   01:21:58.380
22              1:22:45.694     0:02:58.845     32 312 kbps     37 128 kbps     01:24:39.841    35 211 kbps     01:25:09.704    35 070 kbps     01:25:04.532    134 767 bytes   384 868 bytes   01:24:55.990
23              1:25:44.539     0:06:52.845     34 207 kbps     37 012 kbps     01:28:52.660    35 289 kbps     01:27:39.287    35 046 kbps     01:27:34.182    142 670 bytes   401 924 bytes   01:28:23.097
24              1:32:37.385     0:05:07.907     23 884 kbps     36 558 kbps     01:37:02.249    35 163 kbps     01:36:58.245    34 953 kbps     01:36:53.240    99 616 bytes    392 101 bytes   01:37:03.017
25              1:37:45.292     0:05:52.185     20 133 kbps     30 519 kbps     01:39:22.656    29 336 kbps     01:39:20.154    27 841 kbps     01:38:15.856    83 970 bytes    290 416 bytes   01:41:50.704
26              1:43:37.477     0:03:35.548     22 181 kbps     36 296 kbps     01:44:22.990    32 446 kbps     01:44:20.988    30 353 kbps     01:46:39.993    92 513 bytes    304 332 bytes   01:44:22.022
27              1:47:13.026     0:07:17.003     25 795 kbps     33 322 kbps     01:54:05.338    31 773 kbps     01:54:04.270    31 302 kbps     01:54:03.536    107 588 bytes   334 553 bytes   01:53:40.813
28              1:54:30.029     0:08:06.719     24 558 kbps     37 492 kbps     02:02:32.678    35 038 kbps     02:02:28.674    34 519 kbps     02:02:23.936    102 429 bytes   464 876 bytes   02:02:33.179
29              2:02:36.749     0:08:35.147     25 824 kbps     36 872 kbps     02:06:40.059    35 225 kbps     02:06:35.988    34 934 kbps     02:06:31.150    107 707 bytes   406 677 bytes   02:02:41.887
30              2:11:11.897     0:04:20.360     19 213 kbps     27 695 kbps     02:14:55.187    26 564 kbps     02:14:52.784    25 866 kbps     02:14:52.784    80 135 bytes    230 317 bytes   02:12:13.225
31              2:15:32.257     0:06:02.061     18 663 kbps     34 000 kbps     02:20:55.280    33 245 kbps     02:20:50.375    32 644 kbps     02:20:47.038    77 841 bytes    273 415 bytes   02:20:55.346
32              2:21:34.319     0:09:18.691     19 644 kbps     35 357 kbps     02:23:49.187    31 608 kbps     02:23:47.485    30 066 kbps     02:23:47.485    81 934 bytes    263 483 bytes   02:30:29.220
33              2:30:53.010     0:03:25.805     27 736 kbps     36 925 kbps     02:31:57.341    35 062 kbps     02:31:56.540    34 779 kbps     02:33:38.709    115 683 bytes   346 276 bytes   02:32:14.325
34              2:34:18.816     0:03:38.785     29 336 kbps     36 436 kbps     02:37:31.241    34 968 kbps     02:37:01.145    34 810 kbps     02:36:56.006    122 357 bytes   327 071 bytes   02:37:01.545
35              2:37:57.601     0:11:28.054     30 872 kbps     36 811 kbps     02:42:09.719    35 204 kbps     02:39:16.346    35 032 kbps     02:38:52.556    128 764 bytes   404 755 bytes   02:42:19.262
36              2:49:25.655     0:05:24.957     27 411 kbps     35 666 kbps     02:53:36.472    35 033 kbps     02:54:10.540    34 761 kbps     02:54:07.170    114 338 bytes   379 061 bytes   02:54:16.946

STREAM DIAGNOSTICS:

File            PID             Type            Codec           Language                Seconds                 Bitrate                 Bytes           Packets
----            ---             ----            -----           --------                --------------          --------------          -------------   -----
00000.M2TS      4113 (0x1011)   0x1B            AVC                                     3951,314                24 999                  12 347 322 543  67 174 146
00000.M2TS      4352 (0x1100)   0x80            LPCM            rus (Russian)           3951,314                2 310                   1 141 159 988   6 322 216
00000.M2TS      4353 (0x1101)   0x86            DTS-HD MA       rus (Russian)           3951,314                4 043                   1 996 922 668   11 468 550
00000.M2TS      4608 (0x1200)   0x90            PGS             eng (English)           3951,314                15                      7 623 652       44 062
00000.M2TS      4609 (0x1201)   0x90            PGS             fra (French)            3951,314                18                      8 714 806       49 992
00000.M2TS      4610 (0x1202)   0x90            PGS             deu (German)            3951,314                16                      7 708 254       44 527
00000.M2TS      4611 (0x1203)   0x90            PGS             spa (Spanish)           3951,314                16                      7 932 648       45 750
00000.M2TS      4612 (0x1204)   0x90            PGS             cat (Catalan)           3951,314                15                      7 544 095       43 628
00001.M2TS      4113 (0x1011)   0x1B            AVC                                     3405,302                24 990                  10 637 115 570  57 869 929
00001.M2TS      4352 (0x1100)   0x80            LPCM            rus (Russian)           3405,302                2 310                   983 472 300     5 448 600
00001.M2TS      4353 (0x1101)   0x86            DTS-HD MA       rus (Russian)           3405,302                4 153                   1 767 818 940   10 138 558
00001.M2TS      4608 (0x1200)   0x90            PGS             eng (English)           3405,302                12                      4 915 919       28 350
00001.M2TS      4609 (0x1201)   0x90            PGS             fra (French)            3405,302                13                      5 474 492       31 385
00001.M2TS      4610 (0x1202)   0x90            PGS             deu (German)            3405,302                12                      5 080 300       29 242
00001.M2TS      4611 (0x1203)   0x90            PGS             spa (Spanish)           3405,302                12                      4 980 267       28 699
00001.M2TS      4612 (0x1204)   0x90            PGS             cat (Catalan)           3405,302                11                      4 752 407       27 471
00002.M2TS      4113 (0x1011)   0x1B            AVC                                     3133,797                24 990                  9 789 218 249   53 257 029
00002.M2TS      4352 (0x1100)   0x80            LPCM            rus (Russian)           3133,797                2 310                   905 061 656     5 014 192
00002.M2TS      4353 (0x1101)   0x86            DTS-HD MA       rus (Russian)           3133,797                4 163                   1 630 741 388   9 351 012
00002.M2TS      4608 (0x1200)   0x90            PGS             eng (English)           3133,797                12                      4 859 449       28 180
00002.M2TS      4609 (0x1201)   0x90            PGS             fra (French)            3133,797                13                      5 234 222       30 219
00002.M2TS      4610 (0x1202)   0x90            PGS             deu (German)            3133,797                12                      4 838 568       28 057
00002.M2TS      4611 (0x1203)   0x90            PGS             spa (Spanish)           3133,797                13                      4 966 541       28 758
00002.M2TS      4612 (0x1204)   0x90            PGS             cat (Catalan)           3133,797                12                      4 704 169       27 331[/code]
<---- END FORUMS PASTE ---->

QUICK SUMMARY:

Disc Title: Tchaikovsky Pique Dame
Disc Size: 44 000 122 084 bytes
Protection: AACS
BD-Java: No
Playlist: 00000.MPLS
Size: 43 566 993 408 bytes
Length: 2:54:50
Total Bitrate: 33,22 Mbps
Video: MPEG-4 AVC Video / 24993 kbps / 1080i / 29,970 fps / 16:9 / High Profile 4.1
Audio: Russian / DTS-HD Master Audio / 5.1 / 48 kHz / 4115 kbps / 24-bit (DTS Core: 5.1 / 48 kHz / 1509 kbps / 24-bit)
Audio: Russian / LPCM Audio / 2.0 / 48 kHz / 2304 kbps / 24-bit
Subtitle: English / 13,268 kbps
Subtitle: Catalan / 12,964 kbps
Subtitle: French / 14,812 kbps
Subtitle: German / 13,442 kbps
Subtitle: Spanish / 13,635 kbps

********************
PLAYLIST: 00001.MPLS
********************

<--- BEGIN FORUMS PASTE --->
[code]Total   Video
Title                                                           Codec   Length  Movie Size      Disc Size       Bitrate Bitrate Main Audio Track                          Secondary Audio Track
-----                                                           ------  ------- --------------  --------------  ------- ------- ------------------                        ---------------------
00001.MPLS                                                      AVC     0:01:05 209 326 080     44 000 122 084  25,74   24,59[/code]
[code]DISC INFO:

Disc Title:     Tchaikovsky Pique Dame
Disc Size:      44 000 122 084 bytes
Protection:     AACS
BD-Java:        No
BDInfo:         0.5.6

PLAYLIST REPORT:

Name:                   00001.MPLS
Length:                 0:01:05 (h:m:s)
Size:                   209 326 080 bytes
Total Bitrate:          25,74 Mbps

VIDEO:

Codec                   Bitrate             Description
-----                   -------             -----------
MPEG-4 AVC Video        24589 kbps          1080i / 29,970 fps / 16:9 / High Profile 4.1

FILES:

Name            Time In         Length          Size            Total Bitrate
----            -------         ------          ----            -------------
00007.M2TS      0:00:00.000     0:01:04.064     209 295 360     26 136
00010.M2TS      0:01:04.064     0:00:01.000     30 720          246

CHAPTERS:

Number          Time In         Length          Avg Video Rate  Max 1-Sec Rate  Max 1-Sec Time  Max 5-Sec Rate  Max 5-Sec Time  Max 10Sec Rate  Max 10Sec Time  Avg Frame Size  Max Frame Size  Max Frame Time
------          -------         ------          --------------  --------------  --------------  --------------  --------------  --------------  --------------  --------------  --------------  --------------
1               0:00:00.000     0:01:04.064     24 971 kbps     38 419 kbps     00:00:31.464    33 960 kbps     00:00:24.090    33 169 kbps     00:00:23.823    104 096 bytes   526 770 bytes   00:00:26.026
2               0:01:04.064     0:00:01.000     111 kbps        0 kbps          00:00:00.000    0 kbps          00:00:00.000    0 kbps          00:00:00.000    478 bytes       2 435 bytes     00:01:04.664

STREAM DIAGNOSTICS:

File            PID             Type            Codec           Language                Seconds                 Bitrate                 Bytes           Packets
----            ---             ----            -----           --------                --------------          --------------          -------------   -----
00007.M2TS      4113 (0x1011)   0x1B            AVC                                     63,931                  25 023                  199 966 395     1 087 908
00010.M2TS      4113 (0x1011)   0x1B            AVC                                     0,901                   145                     16 291          112[/code]
<---- END FORUMS PASTE ---->

QUICK SUMMARY:

Disc Title: Tchaikovsky Pique Dame
Disc Size: 44 000 122 084 bytes
Protection: AACS
BD-Java: No
Playlist: 00001.MPLS
Size: 209 326 080 bytes
Length: 0:01:05
Total Bitrate: 25,74 Mbps
Video: MPEG-4 AVC Video / 24589 kbps / 1080i / 29,970 fps / 16:9 / High Profile 4.1
Качество видео: Blu-ray
Формат/Контейнер: BDMV
Видео кодек: MPEG4
Аудио кодек: DTS-HD
Видео поток: MPEG-4 AVC Video / 24589 kbps / 1080i / 29,970 fps / 16:9 / High Profile 4.1
Аудио поток 1: DTS-HD Master Audio / 5.1 / 48 kHz / 4115 kbps / 24-bit
Аудио поток 2: LPCM Audio / 2.0 / 48 kHz / 2304 kbps / 24-bit

Трекер:  [ 27-Сен-2011 21:03 ]

  

Скачать .torrent

Размер .torrent файла 208 KB


Размер: 40.98 GB
Хэш (hash) релиза: b6223350bed6d04633ef26484d61e3387466c1e5

Еще никто не оставлял запись к записи скачать торрент Чайковский - Пиковая дама Tchaikovsky - Pique Dame . Будь первым!

!Обратная связь