Dolls Music Staff | Anna Rane | Ella Kweku

Скачать через торрент Одноклассницы Фильм бесплатно в хорошем качестве torrent

Скачивайте на UnionPeer.org фильмы через торрент без регистрации. Новинки кино в хорошем качестве через торрент. На UnionPeer.org можно скачать через торрент фильмы 2014 и 2015 годов. Самые новые фильмы.

Скачать торрент Одноклассницы бесплатно через .torrent фильм мультфильм сериал

Статистика раздачи
Размер:  744 MB   |    Зарегистрирован:  1 год 8 месяцев   |    .torrent скачан:  156 раз   |   
Раздают:  1  
   
загрузка...
 
Автор Сообщение

Galfimbul

avatar Galfimbul


«Когда они вместе возможно всё»

Одноклассницы



[b]Год выхода:
2016
Жанр: Комедия
Режиссер: Дмитрий Суворов
В ролях: Светлана Ходченкова, Валентина Мазунина, Екатерина Вилкова, Ольга Кузьмина, Арарат Кещян, Роман Юнусов, Илья Любимов, Антон Макарский, Ян Цапник, Дмитрий Хрусталёв, Пётр Романов, Яна Кошкина, Александр Соколовский, Денис Косяков, Влад Канопка, Данила Якушев, Евгений Кулик (II), Полина Филоненко, Мария Фелянина

О фильме:
Три подруги Вика, Света и Даша бросают свои дела и едут в Сочи на девичник к бывшей однокласснице Кате, чтобы как следует там оторваться. Веселье в разгаре и шампанское льется рекой, но тут случается то, чего никто не мог ожидать — в самый разгар праздника Катя застает своего жениха с пышногрудой блондинкой. Невеста в истерике. Она запирается в номере и говорит, что готова выйти за первого встречного, лишь бы не за него. Свадьба назначена на завтра и у решительных подруг есть всего лишь одна ночь, чтобы найти Кате нового мужа. Удастся ли им это?



Страна: Россия
Студия: Кинофирма
Продолжительность: 01:14:18
Перевод: Не требуется [Лицензия, R5]

Файл
Качество: DVDRip
Кодек: XviD
Видео: 688x288 (2.40:1), 25 fps, XviD ~ 1263 Кbps avg, 0.255 bit/pixel
Аудио: MP3, 48 kHz, 2 ch, ~128.00 kbps avg | русский |
Субтитры: Отсутствуют
Семпл
Общее
Полное имя : D:TorrentsЗавершенныеOdnoklasnici.2016.O.DVDRip.745Mb.avi
Формат : AVI
Формат/Информация : Audio Video Interleave
Размер файла : 744 Мбайт
Продолжительность : 1 ч. 14 м.
Общий поток : 1400 Кбит/сек
Название фильма : Одноклассницы (2016)
Режиссёр : *** stillet ***
Жанр : Комедия
Программа кодирования : VirtualDubMod 1.5.10.3 (build 2550/release)
Библиотека кодирования : VirtualDubMod build 2550/release

Видео
Идентификатор : 0
Формат : MPEG-4 Visual
Профиль формата : Advanced [email protected]
Параметр BVOP формата : 2
Параметр QPel формата : Нет
Параметр GMC формата : Без точки перехода
Параметр матрицы формата : Выборочная
Идентификатор кодека : XVID
Идентификатор кодека/Подсказка : XviD
Продолжительность : 1 ч. 14 м.
Битрейт : 1263 Кбит/сек
Ширина : 688 пикселей
Высота : 288 пикселей
Соотношение сторон : 2,40:1
Частота кадров : 25,000 кадров/сек
Цветовое пространство : YUV
Субдискретизация насыщенности : 4:2:0
Битовая глубина : 8 бит
Тип развёртки : Прогрессивная
Метод сжатия : С потерями
Бит/(Пиксели*Кадры) : 0.255
Размер потока : 671 Мбайт (90%)
Библиотека кодирования : XviD 73

Аудио
Идентификатор : 1
Формат : MPEG Audio
Версия формата : Version 1
Профиль формата : Layer 3
Режим : Joint stereo
Расширение режима : MS Stereo
Идентификатор кодека : 55
Идентификатор кодека/Подсказка : MP3
Продолжительность : 1 ч. 14 м.
Вид битрейта : Постоянный
Битрейт : 128 Кбит/сек
Каналы : 2 канала
Частота : 48,0 КГц
Метод сжатия : С потерями
Размер потока : 68,0 Мбайт (9%)
Выравнивание : Соединение по промежуткам
Продолжительность промежутка : 40 мс. (1,00 видеокадр)
Время предзагрузки промежутка : 504 мс.


Трекер:  [ 24-Янв-2017 08:00 ]

  

Скачать .torrent

Размер .torrent файла 15 KB


Размер: 744 MB
Хэш (hash) релиза: b867f5bb2d923ccb6939c603e1b91855191110ec
Подписка на обновления:

Торренты, похожие на Одноклассницы скачать торрент

Форум Название Автор Размер S L Добавлен
Российские фильмы до 2016 ·· Одноклассницы: Новый поворот (Дмитрий Суворов) [2017, Россия, комедия, WEB-DL 1080p] Original Rus Galfimbul 28077383462.61 GB 0 0 1505139051

17:10

11-Сен-17

Российские фильмы 2016-2018 (Новинки русского кино) ·· Одноклассницы: Новый поворот (Дмитрий Суворов) [2017 г., комедия, WEB-DLRip] iTunes Galfimbul 14676029441.37 GB 0 0 1489752918

15:15

17-Мар-17

Российские фильмы 2016-2018 (Новинки русского кино) ·· Одноклассницы: Новый поворот (Дмитрий Суворов) [2017 г., комедия, WEB-DL 720р] iTunes Galfimbul 25311192462.36 GB 0 0 1489752912

15:15

17-Мар-17

Российские фильмы 2016-2018 (Новинки русского кино) ·· Одноклассницы: Новый поворот (Дмитрий Суворов) [2017 г., комедия, WEB-DL 1080р] iTunes Galfimbul 28077077692.61 GB 0 0 1489752902

15:15

17-Мар-17

Российские фильмы 2016-2018 (Новинки русского кино) ·· Одноклассницы: Новый поворот (Дмитрий Суворов) [2017 г., комедия, WEB-DLRip] Galfimbul 14671380481.37 GB 0 0 1489637489

07:11

16-Мар-17

Российские фильмы 2016-2018 (Новинки русского кино) ·· Одноклассницы: Новый поворот (Дмитрий Суворов) [2017 г., комедия, WEB-DL 1080р] Galfimbul 24329708272.27 GB 0 0 1489637483

07:11

16-Мар-17

Российские фильмы 2016-2018 (Новинки русского кино) ·· Одноклассницы: Новый поворот (Дмитрий Суворов) [2017 г., комедия, CAMRip] Galfimbul 14678446081.37 GB 0 0 1487932536

13:35

24-Фев-17

Российские фильмы 2016-2018 (Новинки русского кино) ·· Одноклассницы (Дмитрий Суворов) [2016, Россия, комедия, DVDRip] Лицензия Galfimbul 14712524801.37 GB 0 0 1485234726

08:12

24-Янв-17

Российские фильмы до 2016 ·· Одноклассницы (Дмитрий Суворов) [2016, Россия, Комедия, DVD5 (сжатый)] исх. R5, Original Rus Galfimbul 46749880324.35 GB 0 0 1481983196

16:59

17-Дек-16

Российские фильмы до 2016 ·· Одноклассницы (Дмитрий Суворов) [2016, Россия, комедия, DVD9] R5 Original Rus Galfimbul 48319057924.5 GB 0 0 1480692520

18:28

2-Дек-16

Российские фильмы до 2016 ·· Одноклассницы (Дмитрий Суворов) [2016, Россия, комедия, WEB-DL 1080p] + Original Rus Galfimbul 27927531802.6 GB 0 0 1467975311

13:55

8-Июл-16

Российские фильмы до 2016 ·· Одноклассницы (Дмитрий Суворов) [2016, комедия, WEB-DLRip] Galfimbul 14657658881.37 GB 0 0 1467844646

01:37

7-Июл-16

Российские фильмы 2016-2018 (Новинки русского кино) ·· Одноклассницы (Дмитрий Суворов) [2016, комедия, WEB-DL 1080p] iTunes Galfimbul 27927531802.6 GB 0 0 1467836028

23:13

6-Июл-16

Российские фильмы 2016-2018 (Новинки русского кино) ·· Одноклассницы (Дмитрий Суворов) [2016, комедия, WEB-DLRip] iTunes Galfimbul 14657658881.37 GB 0 0 1467832402

22:13

6-Июл-16

Российские фильмы 2016-2018 (Новинки русского кино) ·· Одноклассницы (Дмитрий Суворов) [2016, комедия, WEB-DL 720p] iTunes Galfimbul 25759582612.4 GB 0 0 1467832379

22:12

6-Июл-16

Зарубежные фильмы до 2016 ·· Одноклассницы / St. Trinian's (Оливер Паркер / Oliver Parker) [2007, Великобритания, комедия, BDRip-AVC] MVO + Original (Eng) + Sub (Rus, Eng) Galfimbul 32936300343.07 GB 0 0 1426275998

22:46

13-Мар-15

Российские фильмы до 2016 ·· Одноклассницы (Григорий Жихаревич) [2013, Мелодрама, DVB] Galfimbul 13455892481.25 GB 0 0 1379318416

11:00

16-Сен-13

Российские фильмы до 2016 ·· Одноклассницы (Григорий Жихаревич) [2013, Мелодрама, SATRip] Galfimbul 14665666561.37 GB 0 0 1379318415

11:00

16-Сен-13

Российские фильмы до 2016 ·· Одноклассницы (Григорий Жихаревич) [2013, Мелодрама, SATRip] Galfimbul 734255104700 MB 0 0 1379318412

11:00

16-Сен-13

Еще никто не оставлял запись к записи скачать торрент Одноклассницы . Будь первым!

!Обратная связь