15 | com.samsung.android.lool | Movies Feed

Скачать через торрент Экипаж Фильм бесплатно в хорошем качестве torrent

Скачивайте на UnionPeer.org фильмы через торрент без регистрации. Новинки кино в хорошем качестве через торрент. На UnionPeer.org можно скачать через торрент фильмы 2014 и 2015 годов. Самые новые фильмы.

Скачать торрент Экипаж бесплатно через .torrent фильм мультфильм сериал

Статистика раздачи
Размер:  1.37 GB   |    Зарегистрирован:  2 года 4 месяца   |    .torrent скачан:  1909 раз   |   
Раздают:  1  
   
загрузка...
 
Автор Сообщение

Galfimbul

avatar Galfimbul


Экипаж
Оригинальное название: Экипаж
Год выпуска: 2016
Жанр: Драма, приключения, триллер
Выпущено: Россия, Студия Тритэ
Перевод: не требуется
Присутствует реклама

Режиссер: Николай Лебедев
В ролях: Данила Козловский, Владимир Машков, Агне Грудите, Сергей Кемпо, Катерина Шпица, Сергей Шакуров, Сергей Газаров, Елена Яковлева, Алёна Бабенко, Сергей Романович

О фильме: История талантливого молодого летчика Алексея Гущина. Он не признает авторитетов, предпочитая поступать в соответствии с личным кодексом чести. За невыполнение абсурдного приказа его выгоняют из военной авиации, и только чудом он получает шанс летать на гражданских самолетах.

Качество: CAMRip
Формат: AVI
Видео: XviD, 1422 Кбит/с, 720х304
Аудио: AC3, 2 ч, 128 Кбит/с
Полное имя : D:\V\EkePaG.2o16.O.CAMRip.14OOMB_KOSHERA.avi
Формат : AVI
Формат/Информация : Audio Video Interleave
Размер файла : 1,37 Гбайт
Продолжительность : 2 ч. 5 м.
Общий поток : 1560 Кбит/сек
Программа кодирования : VirtualDubMod 1.5.10.2 (build 2540/release)
Библиотека кодирования : VirtualDubMod build 2540/release

Видео
Идентификатор : 0
Формат : MPEG-4 Visual
Профиль формата : Advanced [email protected]
Параметр BVOP формата : 2
Параметр QPel формата : Нет
Параметр GMC формата : Без точки перехода
Параметр матрицы формата : Default (MPEG)
Идентификатор кодека : XVID
Идентификатор кодека/Подсказка : XviD
Продолжительность : 2 ч. 5 м.
Битрейт : 1423 Кбит/сек
Ширина : 720 пикселей
Высота : 304 пикселя
Соотношение сторон : 2,35:1
Частота кадров : 25,000 кадров/сек
Цветовое пространство : YUV
Субдискретизация насыщенности : 4:2:0
Битовая глубина : 8 бит
Тип развёртки : Прогрессивная
Метод сжатия : С потерями
Бит/(Пиксели*Кадры) : 0.260
Размер потока : 1,25 Гбайт (91%)
Библиотека кодирования : XviD 1.2.1 (UTC 2008-12-04)

Аудио
Идентификатор : 1
Формат : AC-3
Формат/Информация : Audio Coding 3
Расширение режима : CM (complete main)
Параметр Endianness формата : Big
Идентификатор кодека : 2000
Продолжительность : 2 ч. 5 м.
Вид битрейта : Постоянный
Битрейт : 128 Кбит/сек
Каналы : 2 канала
Расположение каналов : Front: L R
Частота : 48,0 КГц
Частота кадров : 31,250 кадров/сек (1536 spf)
Метод сжатия : С потерями
Размер потока : 115 Мбайт (8%)
Выравнивание : Разделение по промежуткам
Продолжительность промежутка : 40 мс. (1,00 видеокадр)
Время предзагрузки промежутка : 500 мс.


Трекер:  [ 03-Май-2016 00:24 ]

  

Скачать .torrent

Размер .torrent файла 14 KB


Размер: 1.37 GB
Хэш (hash) релиза: c3254110f53674badb64ac50f72b218fa14e0061
Подписка на обновления:

Торренты, похожие на Экипаж скачать торрент

Форум Название Автор Размер S L Добавлен
Российские сериалы ·· Улётный экипаж / Серии: 1-5 из 21 (Марюс Вайсберг, Ольга Липатова) [2018, комедия, WEBRip] Galfimbul 15778856961.47 GB 0 0 1522365148

02:12

30-Мар-18

Зарубежные фильмы до 2016 ·· Экипаж в Вену / Kocar do Vidne / Coach to Vienna (Карел Кахиня / Karel Kachyna) [1966, Чехословакия, притча, метафора, военная драма, шедевр, DVD5] MVO + original Galfimbul 46759403524.35 GB 0 0 1497251172

10:06

12-Июн-17

Российские фильмы до 2016 ·· Экипаж (Николай Лебедев) [2016, Россия, драма, приключения, триллер, HDTVRip] [Open Matte] Galfimbul 23524705142.19 GB 0 0 1488166644

06:37

27-Фев-17

Российские фильмы до 2016 ·· Экипаж (Николай Лебедев) [2016, мелодрама, катастрофа, BDRip] Galfimbul 23652003842.2 GB 0 0 1469961374

13:36

31-Июл-16

3D Фильмы, кино ·· Экипаж в 3Д / 3D (Николай Лебедев) [2016, Драма, приключения, триллер, Blu-Ray Disc, 1080p] BD3D Galfimbul 3530542284832.88 GB 0 0 1467142258

22:30

28-Июн-16

3D Фильмы, кино ·· Экипаж в 3Д / 3D (Николай Лебедев) [2016, Драма, Приключения, Триллер, BDrip] Half OverUnder / Вертикальная анаморфная стереопара Galfimbul 1209884448111.27 GB 0 0 1467140343

21:59

28-Июн-16

3D Фильмы, кино ·· Экипаж в 3Д / 3D (Николай Лебедев) [2016, Драма, приключения, триллер, BDrip, 1080p] OverUnder / Вертикальная стереопара Galfimbul 1776382744916.54 GB 0 0 1467140322

21:58

28-Июн-16

Российские фильмы до 2016 ·· Экипаж (Николай Лебедев) [2016, Россия, драма, приключения, триллер, Blu-ray disc 1080p] [RUS] + Original Rus Galfimbul 2395750475322.31 GB 0 0 1466960482

20:01

26-Июн-16

Российские фильмы до 2016 ·· Экипаж (Николай Лебедев) [2016, драма, приключения, триллер, BDRip-AVC] Galfimbul 45859815974.27 GB 0 0 1466444092

20:34

20-Июн-16

Российские фильмы до 2016 ·· Экипаж (Николай Лебедев) [2016, Драма, приключения, триллер, BDRip] Galfimbul 23425536002.18 GB 0 0 1465967623

08:13

15-Июн-16

Российские фильмы до 2016 ·· Экипаж (Николай Лебедев) [2016, Россия, драма, приключения, триллер, DVD9] R5 Original Rus Galfimbul 74359992326.93 GB 0 0 1465902454

14:07

14-Июн-16

Российские фильмы до 2016 ·· Экипаж (Николай Лебедев) [2016, Россия, Драма, приключения, триллер, DVD5 (сжатый)] исх. R5, Original Rus Galfimbul 46925250564.37 GB 0 0 1465902433

14:07

14-Июн-16

Российские фильмы до 2016 ·· Экипаж (Николай Лебедев) [2016, Драма, приключения, триллер, BDRip-AVC] Galfimbul 15670426271.46 GB 0 0 1465733252

15:07

12-Июн-16

Российские фильмы до 2016 ·· Экипаж (Николай Лебедев) [2016, Драма, приключения, триллер, BDRip] Galfimbul 15664025601.46 GB 0 0 1465729549

14:05

12-Июн-16

Российские фильмы до 2016 ·· Экипаж (Николай Лебедев) [2016, драма, приключения, триллер, BDRip-AVC] Galfimbul 31180575982.9 GB 0 0 1465425508

01:38

9-Июн-16

Российские фильмы 2016-2018 (Новинки русского кино) ·· Экипаж (Николай Лебедев) [2016, Драма, приключения, триллер, BDRip 720p] Лицензия Galfimbul 46791327624.36 GB 0 0 1464781259

14:40

1-Июн-16

Российские фильмы до 2016 ·· Экипаж (Николай Лебедев) [2016, Драма, приключения, триллер, HDRip] Galfimbul 15659683841.46 GB 0 0 1464729225

00:13

1-Июн-16

Российские фильмы до 2016 ·· Экипаж (Николай Лебедев) [2016, драма, приключения, триллер, BDRip-AVC] Galfimbul 48021708074.47 GB 0 0 1464729219

00:13

1-Июн-16

Российские фильмы до 2016 ·· Экипаж (Николай Лебедев) [2016, Катастрофа, мелодрама, BDRip] Galfimbul 15705804801.46 GB 0 0 1464698699

15:44

31-Май-16

Российские фильмы до 2016 ·· Экипаж (Николай Лебедев) [2016, драма, приключения, триллер, HDRip] Galfimbul 15763333121.47 GB 0 0 1464686051

12:14

31-Май-16

bot

Сообщение удалено

bot

Сообщение удалено

Aleks035

......и смотреть не стал. Удалил(((

Alex7791

CAMRip

Хотите добавить комментарий к записи скачать торрент Экипаж

!Обратная связь