Hudson Borthwick | Cliff Richard | Cleverman

Скачать порно через торрент Intensiver nylon footjob handjob UnionPeer.org бесплатно онлайн HD качество

Скачать новое порно 2015, 2014 новинки через торрент UnionPeer.org

Порно торрент бесплатно ЮнионПир.орг

Статистика раздачи
Размер:  330 MB   |    Зарегистрирован:  2 года 6 месяцев   |    .torrent скачан:  489 раз   |   
Раздают:  1  
   
загрузка...
 
Автор Сообщение

Galfimbul

avatar Galfimbul


Intensiver nylon footjob handjob [i]
Год производства: 2015 г.
Страна: other
Жанр: masturbating, footjob, handjob, closeup
Продолжительность: 00:21:51

Качество видео: CamRip
Формат видео: MPEG
Видео: AVC, 1280x720, 30,000 кадров/сек, 2048 Кбит/сек, 0.074
Аудио: AAC, 44,1 КГц, 1 канал, 56,0 Кбит/сек</span>[url=...6895141] [/url]
Общее
Полное имя : Intensiver_nylon_footjob_handjob.mp4
Формат : MPEG-4
Профиль формата : Base Media
Идентификатор кодека : isom (isom/mp42)
Размер файла : 330 Мбайт
Продолжительность : 21 м.
Общий поток : 2110 Кбит/сек
Дата записи : 2015-10-19T15:37:34+0200
Программа кодирования : Lavf56.25.101

Видео
Идентификатор : 1
Формат : AVC
Формат/Информация : Advanced Video Codec
Профиль формата : [email protected]
Параметр CABAC формата : Нет
Параметр ReFrames формата : 3 кадра
Идентификатор кодека : avc1
Идентификатор кодека/Информация : Advanced Video Coding
Продолжительность : 21 м.
Продолжительность оригинала : 21 м.
Битрейт : 2048 Кбит/сек
Ширина : 1280 пикселей
Высота : 720 пикселей
Соотношение сторон : 16:9
Режим частоты кадров : Переменный
Частота кадров : 30,000 кадров/сек
Минимальная частота кадров : 29,970 кадров/сек
Максимальная частота кадров : 30,120 кадров/сек
Цветовое пространство : YUV
Субдискретизация насыщенности : 4:2:0
Битовая глубина : 8 бит
Тип развёртки : Прогрессивная
Бит/(Пиксели*Кадры) : 0.074
Размер потока : 320 Мбайт (97%)
Размер потока оригинала : 320 Мбайт (97%)
Библиотека кодирования : x264 core 125
Настройки программы : cabac=0 / ref=3 / deblock=1:0:0 / analyse=0x1:0x111 / me=hex / subme=7 / psy=1 / psy_rd=1.00:0.00 / mixed_ref=1 / me_range=16 / chroma_me=1 / trellis=1 / 8x8dct=0 / cqm=0 / deadzone=21,11 / fast_pskip=1 / chroma_qp_offset=-2 / threads=1 / lookahead_threads=1 / sliced_threads=0 / nr=0 / decimate=1 / interlaced=0 / bluray_compat=0 / constrained_intra=0 / bframes=0 / weightp=0 / keyint=250 / keyint_min=25 / scenecut=40 / intra_refresh=0 / rc_lookahead=40 / rc=2pass / mbtree=1 / bitrate=2048 / ratetol=1.0 / qcomp=0.60 / qpmin=0 / qpmax=69 / qpstep=4 / cplxblur=20.0 / qblur=0.5 / ip_ratio=1.40 / aq=1:1.00
Язык : English
mdhd_Duration : 1311045

Аудио
Идентификатор : 2
Формат : AAC
Формат/Информация : Advanced Audio Codec
Профиль формата : LC
Идентификатор кодека : 40
Продолжительность : 21 м.
Вид битрейта : Постоянный
Битрейт : 56,0 Кбит/сек
Каналы : 1 канал
Расположение каналов : Front: C
Частота : 44,1 КГц
Частота кадров : 43,066 кадра/сек (1024 spf)
Метод сжатия : С потерями
Размер потока : 8,75 Мбайт (3%)
Язык : English
mdhd_Duration : 1311115
try failed try failed try failed try failed try failed try failed try failed try failed try failedtry failed try failed try failed try failed try failed try failed try failed try failed try failed


Трекер:  [ 19-Янв-2016 14:00 ]

  

Скачать .torrent

Размер .torrent файла 13 KB


Размер: 330 MB
Хэш (hash) релиза: 2a8a465a99b8f909d550e6dd85b491c981b950e5

Еще никто не оставлял запись к записи скачать торрент Intensiver nylon footjob handjob . Будь первым!

!Обратная связь