The Thick of It | Alles Betty | Single Video Songs

Скачать порно через торрент Swirlies #2 Утопленные #2 UnionPeer.org бесплатно онлайн HD качество

Скачать новое порно 2015, 2014 новинки через торрент UnionPeer.org

Порно торрент бесплатно ЮнионПир.орг

Статистика раздачи
Размер:  2.03 GB   |    Зарегистрирован:  3 года 1 месяц   |    .torrent скачан:  349 раз   |   
Раздают:  1  
   
загрузка...
 
Автор Сообщение

Galfimbul

avatar Galfimbul


Swirlies #2 / Утопленные #2
Год производства: 2006 г.
Страна: USA
Жанр: All Sex, Anal, Deepthroat
Студия: JM Productions
Продолжительность 1h 55mn
В ролях: Hillary Scott, Bailey, Kelly Wells, Ashley Blue

Описание: Every girls gets the SWIRLIES treatment! Fuck ''em then flush ''em - it''s just that simple!

Доп. информация:
[spoiler="Доп. информация"]

Format : AVI
Format/Info : Audio Video Interleave
Format profile : OpenDML
File size : 2.03 GiB
Duration : 1h 55mn
Overall bit rate : 2 526 Kbps
Writing application : Lavf52.93.0

Video
ID : 0
Format : MPEG-4 Visual
Format profile : [email protected]
Format settings, BVOP : No
Format settings, QPel : No
Format settings, GMC : No warppoints
Format settings, Matrix : Default (H.263)
Codec ID : DIVX
Codec ID/Info : Project Mayo
Codec ID/Hint : DivX 4
Duration : 1h 55mn
Bit rate : 2 257 Kbps
Width : 624 pixels
Height : 480 pixels
Display aspect ratio : 4:3
Frame rate : 29.970 fps
Color space : YUV
Chroma subsampling : 4:2:0
Bit depth : 8 bits
Scan type : Progressive
Compression mode : Lossy
Bits/(Pixel*Frame) : 0.251
Stream size : 1.81 GiB (89%)
Writing library : Lavc52.108.0

Audio
ID : 1
Format : MPEG Audio
Format version : Version 1
Format profile : Layer 3
Mode : Joint stereo
Codec ID : 55
Codec ID/Hint : MP3
Duration : 1h 55mn
Bit rate mode : Constant
Bit rate : 256 Kbps
Channel(s) : 2 channels
Sampling rate : 44.1 KHz
Compression mode : Lossy
Stream size : 211 MiB (10%)
Alignment : Aligned on interleaves
Interleave, duration : 26 ms (0.78 video frame)
Interleave, preload duration : 78 ms
Writing library : LAME3.98.4[/spoiler]
Качество видео: SATRip
Формат видео: AVI
Видео: Video: DivX 6 624x480 (4:3) 29.97fps 2257kbps [V: mpeg4 simple profile, yuv420p, 624x480, 2257 kb/s]
Аудио: Audio: MP3 44100Hz stereo 256kbps [A: mp3, 44100 Hz, stereo, 256 kb/s]

Трекер:  [ 25-Май-2015 11:00 ]

  

Скачать .torrent

Размер .torrent файла 10 KB


Размер: 2.03 GB
Хэш (hash) релиза: b171b90adcd346cec4d14d3257e443cd8e857eba

Еще никто не оставлял запись к записи скачать торрент Swirlies #2 Утопленные #2 . Будь первым!

!Обратная связь